开启辅助访问 天气预报 收藏本站

数字音乐论坛

 找回密码
 立即注册
查看: 1724|回复: 28

[参赛作品] [李玲玉金曲典藏][WAV整轨/388MB/百度]全网首发

[复制链接] TA的其它主题

签到天数: 722 天

[LV.9]以坛为家II

59

主题

1515

帖子

1万

积分

论坛元老

Rank: 8Rank: 8

积分
11546
威望
1801
金币
5859
贡献
565

发帖高手勋章

发表于 2018-12-16 12:58:54 | 显示全部楼层 |阅读模式
本帖最后由 ZHZ 于 2019-12-13 15:11 编辑

封面1.jpg

封面2.jpg

封底.jpg

CD.jpg




专辑名称:李玲玉金曲典藏《慢慢地告诉你》
出版发行:广州市新时代影音公司
总经销:天宝文化发展有限公司
ISRC CH-F21-93-369-00/A.J6
出版年代:不详
资源格式:WAV+CUE


曲目
01.蓝色跑车
02.黑发变白发
03.不该欺骗我
04.慢慢地告诉你
05.一瞬间
06.恨你不回头
07.永不骗我
08.小小误会
09.三个梦
10.留下了我
11.扬起你的潇洒

游客,如果您要查看本帖隐藏内容请回复

李玲玉MM.zip

170 Bytes, 下载次数: 13

售价: 30 金币  [记录]

提取码

评分

参与人数 1威望 +8 金币 +16 贡献 +8 收起 理由
WSAN + 8 + 16 + 8 赞一个!

查看全部评分

回复

使用道具 举报

签到天数: 722 天

[LV.9]以坛为家II

59

主题

1515

帖子

1万

积分

论坛元老

Rank: 8Rank: 8

积分
11546
威望
1801
金币
5859
贡献
565

发帖高手勋章

 楼主| 发表于 2018-12-16 13:01:56 | 显示全部楼层
Exact Audio Copy V1.3 from 2. September 2016

EAC 抓取日志文件从16. 十二月 2018, 10:10

未知艺术家 / 未知标题

使用驱动器  :ASUS    DRW-24D1ST   Adapter: 1  ID: 0

读取模式      : 可靠Secure
使用精确流     : 是
清空音频缓存    : 否
使用 C2 指示器 : 否

组合读写偏移校正:             : 0
读取 Lead-In 和 Lead-Out : 否
用静音填充抓取中丢失偏移的采样       : 是
去除首尾静音块               : 否
在CRC 计算中使用了空样本       : 是
已用接口                  : Win NT 及 2000 本地 Win32 接口

所用输出模式: : 内部 WAV 函数
样本格式    : 44.100 Hz; 16 Bit; 立体声


已抓取 CD 的 TOC

     音轨 |    起始    |    长度    |  起始扇区  |  结束扇区  
    --------------------------------------------
      1 |  0:00.01 |  3:03.73 |      1 |  13798
      2 |  3:03.74 |  4:29.05 |  13799 |  33978
      3 |  7:33.04 |  4:08.03 |  33979 |  52581
      4 | 11:41.07 |  2:56.19 |  52582 |  65800
      5 | 14:37.26 |  3:50.65 |  65801 |  83115
      6 | 18:28.16 |  2:57.69 |  83116 |  96459
      7 | 21:26.10 |  3:03.11 |  96460 | 110195
      8 | 24:29.21 |  0:04.64 | 110196 | 110559
      9 | 24:34.10 |  3:43.33 | 110560 | 127317
     10 | 28:17.43 |  3:50.32 | 127318 | 144599
     11 | 32:08.00 |  3:40.70 | 144600 | 161169
     12 | 35:48.70 |  2:34.51 | 161170 | 172770


范围状态及错误

已选择范围

     文件名 F:\未知艺术家 - 未知标题.wav

     峰值电平 97.1 %
     抓取速度 2.5 X
     范围质量 100.0 %
     复制 CRC C1B91204
     复制成功

没有错误发生

状态报告结尾

---- CUETools DB Plugin V2.1.6

[CTDB TOCID: hT5jpjs9J8.bTnStW067u83wjc4-] disk not present in database
Submit result: hT5jpjs9J8.bTnStW067u83wjc4- has been uploaded

回复

使用道具 举报

签到天数: 189 天

[LV.7]常住居民III

2

主题

804

帖子

2244

积分

注册会员

Rank: 2

积分
2244
威望
600
金币
240
贡献
0
发表于 2018-12-16 13:09:25 | 显示全部楼层
音质真好 ,谢谢!!
回复

使用道具 举报

签到天数: 743 天

[LV.9]以坛为家II

1

主题

1506

帖子

3614

积分

中级会员

Rank: 3Rank: 3

积分
3614
威望
645
金币
818
贡献
0
发表于 2018-12-16 13:35:36 | 显示全部楼层
这个版本第一次见,喜欢李玲玉的歌曲。
回复

使用道具 举报

签到天数: 690 天

[LV.9]以坛为家II

3

主题

1729

帖子

3999

积分

中级会员

Rank: 3Rank: 3

积分
3999
威望
1039
金币
184
贡献
8
发表于 2018-12-16 15:11:18 | 显示全部楼层
见过李玲玉的这版曲目一样的CD,只是包装不一样,很喜欢这张CD中的扬起你的潇洒。
回复

使用道具 举报

签到天数: 556 天

[LV.9]以坛为家II

11

主题

865

帖子

1万

积分

版主

Rank: 7Rank: 7Rank: 7

积分
10280
威望
569
金币
8120
贡献
147

贵宾专用勋章

发表于 2018-12-16 15:14:05 | 显示全部楼层
谢谢ZHZ朋友的参赛作品 数坛因你而精彩
回复

使用道具 举报

签到天数: 87 天

[LV.6]常住居民II

6

主题

404

帖子

1149

积分

新手上路

Rank: 1

积分
1149
威望
365
金币
0
贡献
15
发表于 2018-12-16 15:38:22 | 显示全部楼层
和她的专辑蓝色跑车专辑里面的歌曲差不多,,,感谢分享。
回复

使用道具 举报

签到天数: 82 天

[LV.6]常住居民II

1

主题

191

帖子

689

积分

新手上路

Rank: 1

积分
689
威望
110
金币
277
贡献
1
发表于 2018-12-16 17:19:53 | 显示全部楼层
谢谢  一个拼盘  不知道这个版本音质如何  下来听听
回复

使用道具 举报

签到天数: 299 天

[LV.8]以坛为家I

90

主题

1144

帖子

1万

积分

版主

Rank: 7Rank: 7Rank: 7

积分
12107
威望
1271
金币
8036
贡献
380

斑竹专用勋章

发表于 2018-12-16 17:28:35 | 显示全部楼层
全网首发,数友们有耳福了。感谢ZHZ友分享经典!
回复

使用道具 举报

签到天数: 75 天

[LV.6]常住居民II

1

主题

370

帖子

984

积分

新手上路

Rank: 1

积分
984
威望
293
金币
26
贡献
2
发表于 2018-12-16 20:10:30 | 显示全部楼层
感谢楼主分享这个cd! 非常喜欢李玲玉这个时期的嗓音,甜美,清脆!
回复

使用道具 举报

您需要登录后才可以回帖 登录 | 立即注册

本版积分规则

Title - Artist
0:00

    Archiver|手机版|小黑屋|数字音乐论坛 ( 津ICP备09009336号-1 )

    GMT+8, 2020-1-25 20:31 , Processed in 0.671875 second(s), 34 queries .

    Powered by Discuz! X3.4 Licensed

    Copyright © 2001-2020, Tencent Cloud.

    快速回复 返回顶部 返回列表