开启辅助访问 收藏本站

数字音乐论坛

 找回密码
 立即注册
查看: 113|回复: 7

[原创] [梦华、梅素兰—台语怀念流行金曲2][WAV/541MB][百度]

[复制链接]

签到天数: 24 天

[LV.4]偶尔看看III

6

主题

56

帖子

1039

积分

新手上路

Rank: 1

积分
1039
威望
126
金币
679
贡献
47
发表于 2018-11-4 10:49:53 | 显示全部楼层 |阅读模式
专辑名称:台语怀念流行金曲2
歌手:梦华、梅素兰
发行公司:金桦唱片有限公司
唱片编号:TCD-01 02
专辑曲目(红字为试听歌曲):
01.港口情歌
02.乡村小姑娘
03.中山北路行七摆
04.牡丹曲
05.何日君再来
06.何时再相会
07.旅途夜风
08.慈母泪痕
09.姊妹爱
10.台北卖花姑娘
11.委屈的爱
12.台北追想曲
13.难忘的人(梅素兰演唱)
14.劝浪子(梅素兰演唱)
15.妻恋道中(梅素兰演唱)
16.忆恋思景(梅素兰演唱)
游客,如果您要查看本帖隐藏内容请回复

提取码.rar (157 Bytes, 下载次数: 9, 售价: 8 金币)

评分

已有 1 人评分威望 金币 贡献 收起 理由
WSAN + 8 + 16 + 8 很给力!

总评分: 威望 + 8 金币 + 16 贡献 + 8 查看全部评分

回复

使用道具 举报

签到天数: 24 天

[LV.4]偶尔看看III

6

主题

56

帖子

1039

积分

新手上路

Rank: 1

积分
1039
威望
126
金币
679
贡献
47
 楼主| 发表于 2018-11-4 10:50:26 | 显示全部楼层
Exact Audio Copy V1.3 from 2. September 2016

EAC 抓取日志文件从22. 十月 2018, 17:40

梦华 / 台语怀念流行金曲2

使用驱动器  :PIONEER DVD-RW  DVR-221L   Adapter: 1  ID: 0

读取模式      : 可靠Secure
使用精确流     : 是
清空音频缓存    : 是
使用 C2 指示器 : 否

读取偏移校正:               : 0
读取 Lead-In 和 Lead-Out : 否
用静音填充抓取中丢失偏移的采样       : 是
去除首尾静音块               : 否
在CRC 计算中使用了空样本       : 是
已用接口                  : Win NT 及 2000 本地 Win32 接口

所用输出模式: : 内部 WAV 函数
样本格式    : 44.100 Hz; 16 Bit; 立体声


已抓取 CD 的 TOC

     音轨 |    起始    |    长度    |  起始扇区  |  结束扇区  
    --------------------------------------------
      1 |  0:00.00 |  4:03.45 |      0 |  18269
      2 |  4:03.45 |  2:57.72 |  18270 |  31616
      3 |  7:01.42 |  3:22.60 |  31617 |  46826
      4 | 10:24.27 |  2:47.70 |  46827 |  59421
      5 | 13:12.22 |  3:50.68 |  59422 |  76739
      6 | 17:03.15 |  3:14.55 |  76740 |  91344
      7 | 20:17.70 |  3:11.62 |  91345 | 105731
      8 | 23:29.57 |  3:07.70 | 105732 | 119826
      9 | 26:37.52 |  3:19.40 | 119827 | 134791
     10 | 29:57.17 |  3:33.28 | 134792 | 150794
     11 | 33:30.45 |  3:32.45 | 150795 | 166739
     12 | 37:03.15 |  3:14.35 | 166740 | 181324
     13 | 40:17.50 |  3:16.72 | 181325 | 196096
     14 | 43:34.47 |  3:15.28 | 196097 | 210749
     15 | 46:50.00 |  3:35.32 | 210750 | 226906
     16 | 50:25.32 |  3:14.63 | 226907 | 241519


范围状态及错误

已选择范围

     文件名 F:\CD抓轨\台语怀念流行金曲2\梦华 - 台语怀念流行金曲2.wav

     峰值电平 95.3 %
     抓取速度 6.9 X
     范围质量 100.0 %
     复制 CRC 7DC31C96
     复制成功

没有错误发生

状态报告结尾

---- CUETools DB Plugin V2.1.6

[CTDB TOCID: Q5dsZnXQNWOsEicdjRDD_oVLjRM-] disk not present in database
Submit result: Q5dsZnXQNWOsEicdjRDD_oVLjRM- has been uploaded

回复

使用道具 举报

签到天数: 249 天

[LV.8]以坛为家I

1

主题

355

帖子

619

积分

新手上路

Rank: 1

积分
619
威望
104
金币
56
贡献
0
发表于 2018-11-4 11:36:23 | 显示全部楼层
喜欢闽南语歌曲的调调,下载欣赏,谢谢楼主分享!
回复

使用道具 举报

签到天数: 324 天

[LV.8]以坛为家I

50

主题

714

帖子

8625

积分

金牌会员

Rank: 6Rank: 6

积分
8625
威望
1268
金币
4862
贡献
508

发帖高手勋章

发表于 2018-11-4 12:43:44 | 显示全部楼层
好听滴调调,音质很棒!
回复

使用道具 举报

签到天数: 138 天

[LV.7]常住居民III

7

主题

438

帖子

1215

积分

新手上路

Rank: 1

积分
1215
威望
367
金币
27
贡献
16
QQ
发表于 2018-11-4 14:00:50 | 显示全部楼层
台湾流行歌曲,好熟悉的旋律。谢谢分享。
回复

使用道具 举报

签到天数: 272 天

[LV.8]以坛为家I

1

主题

781

帖子

1901

积分

新手上路

Rank: 1

积分
1901
威望
486
金币
143
贡献
5
发表于 2018-11-5 05:25:29 | 显示全部楼层
听听何日君再来的台语版,谢谢分享
回复

使用道具 举报

签到天数: 188 天

[LV.7]常住居民III

25

主题

423

帖子

1717

积分

新手上路

Rank: 1

积分
1717
威望
487
金币
235
贡献
85
发表于 2018-11-5 17:23:52 | 显示全部楼层
喜欢闽南语歌曲,谢谢分享
回复

使用道具 举报

签到天数: 303 天

[LV.8]以坛为家I

10

主题

550

帖子

1603

积分

新手上路

Rank: 1

积分
1603
威望
308
金币
387
贡献
50
发表于 2018-11-8 11:28:26 | 显示全部楼层
闽南语歌曲的调调很好听,缠绵优雅,谢谢分享
回复

使用道具 举报

您需要登录后才可以回帖 登录 | 立即注册

本版积分规则

数字音乐论坛

Archiver|手机版|小黑屋|数字音乐论坛 ( 津ICP备09009336号-1 )

GMT+8, 2018-11-17 04:33 , Processed in 1.304000 second(s), 50 queries .

Powered by Discuz! X3.4

© 2008-2018 Comsenz Inc.|上网要文明 发言要理性 本站禁灌水

快速回复 返回顶部 返回列表