开启辅助访问 收藏本站

数字音乐论坛

 找回密码
 立即注册
查看: 74|回复: 2

[原创] 蔡琴/经典全记录【4--4】WAV/百度/589MB

[复制链接]

签到天数: 159 天

[LV.7]常住居民III

35

主题

776

帖子

5456

积分

中级会员

Rank: 3Rank: 3

积分
5456
威望
1075
金币
2275
贡献
255
发表于 2018-11-3 14:35:09 | 显示全部楼层 |阅读模式
专辑;蔡琴/经典全记录【4--4】
出版;广州新时代影音公司
时间;1998
编号;SSD-002
格式;CD-WAV
大小;589MB
链接;
游客,如果您要查看本帖隐藏内容请回复

试听;[audio][/audio]密码; 密码.zip (227 Bytes, 下载次数: 3, 售价: 20 金币)

评分

已有 1 人评分威望 金币 贡献 收起 理由
WSAN + 8 + 16 + 8 很给力!

总评分: 威望 + 8 金币 + 16 贡献 + 8 查看全部评分

回复

使用道具 举报

签到天数: 159 天

[LV.7]常住居民III

35

主题

776

帖子

5456

积分

中级会员

Rank: 3Rank: 3

积分
5456
威望
1075
金币
2275
贡献
255
 楼主| 发表于 2018-11-3 14:35:55 | 显示全部楼层
IMG_20180424_0002.jpg
IMG_20180424_0003.jpg
IMG_20180424_0004.jpg
回复

使用道具 举报

签到天数: 159 天

[LV.7]常住居民III

35

主题

776

帖子

5456

积分

中级会员

Rank: 3Rank: 3

积分
5456
威望
1075
金币
2275
贡献
255
 楼主| 发表于 2018-11-3 14:40:19 | 显示全部楼层
Exact Audio Copy V1.2 from 12. August 2016

EAC 抓取日志文件从24. 四月 2018, 18:34

蔡琴 / 经典全记录【4--4】

使用驱动器  :ASUS    DVD-E818A9T   b   Adapter: 1  ID: 1

读取模式      : 可靠Secure
使用精确流     : 是
清空音频缓存    : 否
使用 C2 指示器 : 否

组合读写偏移校正:             : 0
读取 Lead-In 和 Lead-Out : 否
用静音填充抓取中丢失偏移的采样       : 是
去除首尾静音块               : 否
在CRC 计算中使用了空样本       : 是
已用接口                  : Win NT 及 2000 本地 Win32 接口

所用输出模式: : 内部 WAV 函数
样本格式    : 44.100 Hz; 16 Bit; 立体声


已抓取 CD 的 TOC

     音轨 |    起始    |    长度    |  起始扇区  |  结束扇区  
    --------------------------------------------
      1 |  0:00.01 |  4:26.45 |      1 |  19995
      2 |  4:26.46 |  3:46.51 |  19996 |  36996
      3 |  8:13.22 |  3:07.04 |  36997 |  51025
      4 | 11:20.26 |  2:53.44 |  51026 |  64044
      5 | 14:13.70 |  3:27.64 |  64045 |  79633
      6 | 17:41.59 |  3:45.22 |  79634 |  96530
      7 | 21:27.06 |  3:21.60 |  96531 | 111665
      8 | 24:48.66 |  3:48.71 | 111666 | 128836
      9 | 28:37.62 |  4:06.09 | 128837 | 147295
     10 | 32:43.71 |  3:39.60 | 147296 | 163780
     11 | 36:23.56 |  3:50.23 | 163781 | 181053
     12 | 40:14.04 |  3:48.11 | 181054 | 198164
     13 | 44:02.15 |  3:49.06 | 198165 | 215345
     14 | 47:51.21 |  3:16.19 | 215346 | 230064
     15 | 51:07.40 |  3:50.71 | 230065 | 247385
     16 | 54:58.36 |  3:28.49 | 247386 | 263034


范围状态及错误

已选择范围

     文件名 F:\蔡琴;经典全记录【1--4】\蔡琴;经典全记录【4--4】\蔡琴 - 经典全记录【4--4】.wav

     峰值电平 64.4 %
     抓取速度 7.0 X
     范围质量 100.0 %
     复制 CRC F93AFDB4
     复制成功

没有错误发生

状态报告结尾

---- CUETools DB Plugin V2.1.6

[CTDB TOCID: C5_AUnsnurHveYrHrFoC.jpk2LI-] found
Submit result: C5_AUnsnurHveYrHrFoC.jpk2LI- has been submitted
Track | CTDB Status
  1   | (4/4) Accurately ripped
  2   | (4/4) Accurately ripped
  3   | (4/4) Accurately ripped
  4   | (4/4) Accurately ripped
  5   | (4/4) Accurately ripped
  6   | (0/4) No match
  7   | (4/4) Accurately ripped
  8   | (4/4) Accurately ripped
  9   | (4/4) Accurately ripped
10   | (4/4) Accurately ripped
11   | (4/4) Accurately ripped
12   | (4/4) Accurately ripped
13   | (4/4) Accurately ripped
14   | (4/4) Accurately ripped
15   | (4/4) Accurately ripped
16   | (4/4) Accurately ripped


回复

使用道具 举报

您需要登录后才可以回帖 登录 | 立即注册

本版积分规则

数字音乐论坛

Archiver|手机版|小黑屋|数字音乐论坛 ( 津ICP备09009336号-1 )

GMT+8, 2018-11-17 04:12 , Processed in 1.257000 second(s), 38 queries .

Powered by Discuz! X3.4

© 2008-2018 Comsenz Inc.|上网要文明 发言要理性 本站禁灌水

快速回复 返回顶部 返回列表