开启辅助访问 收藏本站

数字音乐论坛

 找回密码
 立即注册
查看: 143|回复: 9

[原创] [林淑娟 - 优质女唱将(绝版系列)2CD][WAV/1.127G][百度]

[复制链接]

签到天数: 124 天

[LV.7]常住居民III

420

主题

553

帖子

6万

积分

管理员

Rank: 9Rank: 9Rank: 9

积分
64943
威望
7259
金币
45893
贡献
3634

斑竹专用勋章

发表于 2018-10-26 20:56:48 | 显示全部楼层 |阅读模式
本帖最后由 zjhjr 于 2018-10-26 21:12 编辑

IMG_4687.JPG

林淑娟

優質女唱將

磁盤一
01愛人的婚禮
02愛人我等你
03傷心的地方
04教我空等待

05另一個結局
06無情的謊言
07你說過
08不能再愛你
09讓我醉吧
10盼你回航
11打是疼你罵是愛
12往事不堪回首
13往日的柔情
14流雲
15原諒我吧!心上人

磁盤二
01心上人不要走
02愛情賭注
03一場遊戲
04冷冷的街頭
05哎的影子
06無言的愛
07留住今夜
08終是好比一場夢境
09失去的愛情
10負心的人
11山盟海誓
12笑笑沒煩惱
13夢中的笑容
14請你別忘記
15過去就隨風散去
游客,如果您要查看本帖隐藏内容请回复

IMG_4688.JPG
IMG_4689.JPG
IMG_4690.JPG

林淑娟《优质女唱将(绝版系列)》密码.rar

161 Bytes, 下载次数: 8

售价: 30 金币  [记录]

评分

已有 1 人评分威望 金币 贡献 收起 理由
WSAN + 16 + 32 + 16 很给力!

总评分: 威望 + 16 金币 + 32 贡献 + 16 查看全部评分

回复

使用道具 举报

签到天数: 124 天

[LV.7]常住居民III

420

主题

553

帖子

6万

积分

管理员

Rank: 9Rank: 9Rank: 9

积分
64943
威望
7259
金币
45893
贡献
3634

斑竹专用勋章

 楼主| 发表于 2018-10-26 20:57:52 | 显示全部楼层
Exact Audio Copy V1.3 from 2. September 2016

EAC 抓取日志文件从27. 四月 2018, 20:11

林淑娟 / 優質女唱將(絕版系列)1

使用驱动器  :PIONEER DVD-RW  DVR-XT11   Adapter: 0  ID: 0

读取模式      : 可靠Secure
使用精确流     : 是
清空音频缓存    : 是
使用 C2 指示器 : 否

读取偏移校正:               : 6
读取 Lead-In 和 Lead-Out : 否
用静音填充抓取中丢失偏移的采样       : 是
去除首尾静音块               : 否
在CRC 计算中使用了空样本       : 是
已用接口                  : 已安装外部 ASPI 接口

所用输出模式: : 内部 WAV 函数
样本格式    : 44.100 Hz; 16 Bit; 立体声


已抓取 CD 的 TOC

     音轨 |    起始    |    长度    |  起始扇区  |  结束扇区  
    --------------------------------------------
      1 |  0:00.00 |  3:39.05 |      0 |  16429
      2 |  3:39.05 |  3:49.46 |  16430 |  33650
      3 |  7:28.51 |  3:40.66 |  33651 |  50216
      4 | 11:09.42 |  3:19.52 |  50217 |  65193
      5 | 14:29.19 |  3:17.43 |  65194 |  80011
      6 | 17:46.62 |  3:34.71 |  80012 |  96132
      7 | 21:21.58 |  3:38.36 |  96133 | 112518
      8 | 25:00.19 |  2:50.46 | 112519 | 125314
      9 | 27:50.65 |  4:26.20 | 125315 | 145284
     10 | 32:17.10 |  3:26.53 | 145285 | 160787
     11 | 35:43.63 |  2:47.10 | 160788 | 173322
     12 | 38:30.73 |  4:05.63 | 173323 | 191760
     13 | 42:36.61 |  3:54.59 | 191761 | 209369
     14 | 46:31.45 |  3:16.61 | 209370 | 224130
     15 | 49:48.31 |  3:38.08 | 224131 | 240488


范围状态及错误

已选择范围

     文件名 C:\Users\hp\Desktop\zjhjr\林淑娟\林淑娟 - 優質女唱將(絕版系列)1.wav

     峰值电平 100.0 %
     抓取速度 4.7 X
     范围质量 100.0 %
     复制 CRC 38533FFE
     复制成功

没有错误发生


AccurateRip 摘要

音轨  1  在数据库中不存在
音轨  2  在数据库中不存在
音轨  3  在数据库中不存在
音轨  4  在数据库中不存在
音轨  5  在数据库中不存在
音轨  6  在数据库中不存在
音轨  7  在数据库中不存在
音轨  8  在数据库中不存在
音轨  9  在数据库中不存在
音轨 10  在数据库中不存在
音轨 11  在数据库中不存在

Exact Audio Copy V1.3 from 2. September 2016

EAC 抓取日志文件从27. 四月 2018, 20:36

林淑娟 / 優質女唱將(絕版系列)2

使用驱动器  :PIONEER DVD-RW  DVR-XT11   Adapter: 0  ID: 0

读取模式      : 可靠Secure
使用精确流     : 是
清空音频缓存    : 是
使用 C2 指示器 : 否

读取偏移校正:               : 6
读取 Lead-In 和 Lead-Out : 否
用静音填充抓取中丢失偏移的采样       : 是
去除首尾静音块               : 否
在CRC 计算中使用了空样本       : 是
已用接口                  : 已安装外部 ASPI 接口

所用输出模式: : 内部 WAV 函数
样本格式    : 44.100 Hz; 16 Bit; 立体声


已抓取 CD 的 TOC

     音轨 |    起始    |    长度    |  起始扇区  |  结束扇区  
    --------------------------------------------
      1 |  0:00.00 |  3:17.61 |      0 |  14835
      2 |  3:17.61 |  3:39.70 |  14836 |  31330
      3 |  6:57.56 |  3:47.62 |  31331 |  48417
      4 | 10:45.43 |  4:04.36 |  48418 |  66753
      5 | 14:50.04 |  3:21.70 |  66754 |  81898
      6 | 18:11.74 |  3:29.53 |  81899 |  97626
      7 | 21:41.52 |  3:02.29 |  97627 | 111305
      8 | 24:44.06 |  4:46.01 | 111306 | 132756
      9 | 29:30.07 |  3:43.37 | 132757 | 149518
     10 | 33:13.44 |  3:57.45 | 149519 | 167338
     11 | 37:11.14 |  3:13.34 | 167339 | 181847
     12 | 40:24.48 |  4:43.61 | 181848 | 203133
     13 | 45:08.34 |  4:00.53 | 203134 | 221186
     14 | 49:09.12 |  2:49.70 | 221187 | 233931
     15 | 51:59.07 |  3:43.71 | 233932 | 250727


范围状态及错误

已选择范围

     文件名 C:\Users\hp\Desktop\zjhjr\林淑娟\林淑娟 - 優質女唱將(絕版系列)2.wav

     峰值电平 100.0 %
     抓取速度 4.7 X
     范围质量 100.0 %
     复制 CRC DC8F0D97
     复制成功

没有错误发生


AccurateRip 摘要

音轨  1  在数据库中不存在
音轨  2  在数据库中不存在
音轨  3  在数据库中不存在
音轨  4  在数据库中不存在
音轨  5  在数据库中不存在
音轨  6  在数据库中不存在
音轨  7  在数据库中不存在
音轨  8  在数据库中不存在
音轨  9  在数据库中不存在
音轨 10  在数据库中不存在
音轨 11  在数据库中不存在
音轨 12  在数据库中不存在
音轨 13  在数据库中不存在
音轨 14  在数据库中不存在
音轨 15  在数据库中不存在

没有任何音轨在 AccurateRip 数据库中有记录

状态报告结尾

---- CUETools DB Plugin V2.1.6

[CTDB TOCID: tHNlqTkgiDJrmbtrfyMAzVAdmAA-] disk not present in database
Submit result: tHNlqTkgiDJrmbtrfyMAzVAdmAA- has been uploaded

回复

使用道具 举报

签到天数: 180 天

[LV.7]常住居民III

29

主题

382

帖子

7402

积分

高级会员

Rank: 4

积分
7402
威望
773
金币
5151
贡献
278

发帖高手勋章

发表于 2018-10-26 21:55:41 | 显示全部楼层
不知她和林淑容是什么关系,这俩人都很喜欢
回复

使用道具 举报

签到天数: 60 天

[LV.6]常住居民II

1

主题

87

帖子

217

积分

新手上路

Rank: 1

积分
217
威望
26
金币
78
贡献
0
发表于 2018-10-27 09:55:18 | 显示全部楼层
非常好,特别喜欢
我新发布了帖子《大家好》,快来围观吧!
回复

使用道具 举报

签到天数: 250 天

[LV.8]以坛为家I

1

主题

349

帖子

978

积分

新手上路

Rank: 1

积分
978
威望
98
金币
433
贡献
0
发表于 2018-10-27 11:29:01 | 显示全部楼层
林淑娟的声音蛮好听的感谢楼主的分享
回复

使用道具 举报

签到天数: 325 天

[LV.8]以坛为家I

1

主题

878

帖子

2250

积分

注册会员

Rank: 2

积分
2250
威望
441
金币
490
贡献
0
发表于 2018-10-27 14:37:36 | 显示全部楼层
草原之风 发表于 2018-10-26 21:55
不知她和林淑容是什么关系,这俩人都很喜欢

林玉英和林美英,成龙和成凤,。。。哈哈,应该只是名字相近吧。
回复

使用道具 举报

签到天数: 51 天

[LV.5]常住居民I

9

主题

108

帖子

1727

积分

新手上路

Rank: 1

积分
1727
威望
197
金币
1147
贡献
68
发表于 2018-10-28 14:44:31 | 显示全部楼层
林淑娟与林淑蓉的歌有点相似,经典老歌重现,现在很难找到了,感谢楼主分享
回复

使用道具 举报

签到天数: 75 天

[LV.6]常住居民II

30

主题

192

帖子

2857

积分

注册会员

Rank: 2

积分
2857
威望
450
金币
1634
贡献
131

发帖高手勋章

发表于 2018-10-28 15:31:56 | 显示全部楼层
林淑娟演唱的很多都是一些长青的国语老歌和闽南调填词的歌曲首首动听,这个优质女唱将版本源自风格早期发行的林淑娟金曲系列,伴奏比后期张平福编曲的更好听些,谢谢楼主分享!
回复

使用道具 举报

签到天数: 117 天

[LV.6]常住居民II

8

主题

206

帖子

602

积分

新手上路

Rank: 1

积分
602
威望
179
金币
3
贡献
35
发表于 2018-10-28 18:50:18 | 显示全部楼层
林淑娟喜欢的歌手。大马歌星,谢谢了。
回复

使用道具 举报

签到天数: 234 天

[LV.7]常住居民III

1

主题

284

帖子

907

积分

新手上路

Rank: 1

积分
907
威望
33
金币
557
贡献
0
发表于 2018-11-6 17:48:28 | 显示全部楼层
绝版经典,好精美。
回复

使用道具 举报

您需要登录后才可以回帖 登录 | 立即注册

本版积分规则

数字音乐论坛

Archiver|手机版|小黑屋|数字音乐论坛 ( 津ICP备09009336号-1 )

GMT+8, 2018-11-17 04:17 , Processed in 1.297000 second(s), 53 queries .

Powered by Discuz! X3.4

© 2008-2018 Comsenz Inc.|上网要文明 发言要理性 本站禁灌水

快速回复 返回顶部 返回列表