开启辅助访问 收藏本站

数字音乐论坛

 找回密码
 立即注册
查看: 162|回复: 7

[原创] 蔡琴/经典全记录【4--1】百度/WAV/547MB

[复制链接]

签到天数: 159 天

[LV.7]常住居民III

35

主题

776

帖子

5456

积分

中级会员

Rank: 3Rank: 3

积分
5456
威望
1075
金币
2275
贡献
255
发表于 2018-10-22 13:03:42 | 显示全部楼层 |阅读模式
本帖最后由 苦人 于 2018-11-5 13:42 编辑

专辑;蔡琴/经典全记录【4--1】
出版;广州新时代影音公司
时间;1998
编号;SSD-002
格式;CD-WAV
大小;547MB
链接;
游客,如果您要查看本帖隐藏内容请回复

试听;[audio][/audio]
密码;
密码.zip (162 Bytes, 下载次数: 12, 售价: 20 金币)

评分

已有 1 人评分威望 金币 贡献 收起 理由
WSAN + 8 + 16 + 8 赞一个!

总评分: 威望 + 8 金币 + 16 贡献 + 8 查看全部评分

回复

使用道具 举报

签到天数: 159 天

[LV.7]常住居民III

35

主题

776

帖子

5456

积分

中级会员

Rank: 3Rank: 3

积分
5456
威望
1075
金币
2275
贡献
255
 楼主| 发表于 2018-10-22 13:08:19 | 显示全部楼层
IMG_20180424_0002.jpg
IMG_20180424_0003.jpg
IMG_20180424_0001.jpg Exact Audio Copy V1.2 from 12. August 2016
EAC 抓取日志文件从24. 四月 2018, 17:52
蔡琴 / 经典全记录【4--1】
使用驱动器  :ASUS    DVD-E818A9T   b   Adapter: 1  ID: 1
读取模式      : 可靠Secure
使用精确流     : 是
清空音频缓存    : 否
使用 C2 指示器 : 否
组合读写偏移校正:             : 0
读取 Lead-In 和 Lead-Out : 否
用静音填充抓取中丢失偏移的采样       : 是
去除首尾静音块               : 否
在CRC 计算中使用了空样本       : 是
已用接口                  : Win NT 及 2000 本地 Win32 接口
所用输出模式: : 内部 WAV 函数
样本格式    : 44.100 Hz; 16 Bit; 立体声

已抓取 CD 的 TOC
     音轨 |    起始    |    长度    |  起始扇区  |  结束扇区  
    --------------------------------------------
      1 |  0:00.01 |  3:00.63 |      1 |  13563
      2 |  3:00.64 |  3:48.45 |  13564 |  30708
      3 |  6:49.34 |  3:34.47 |  30709 |  46805
      4 | 10:24.06 |  3:22.43 |  46806 |  61998
      5 | 13:46.49 |  3:03.44 |  61999 |  75767
      6 | 16:50.18 |  3:33.50 |  75768 |  91792
      7 | 20:23.68 |  3:34.01 |  91793 | 107843
      8 | 23:57.69 |  3:14.49 | 107844 | 122442
      9 | 27:12.43 |  2:59.48 | 122443 | 135915
     10 | 30:12.16 |  2:35.42 | 135916 | 147582
     11 | 32:47.58 |  4:07.44 | 147583 | 166151
     12 | 36:55.27 |  4:11.50 | 166152 | 185026
     13 | 41:07.02 |  3:39.46 | 185027 | 201497
     14 | 44:46.48 |  2:57.46 | 201498 | 214818
     15 | 47:44.19 |  2:54.53 | 214819 | 227921
     16 | 50:38.72 |  3:32.53 | 227922 | 243874

范围状态及错误
已选择范围
     文件名 F:\蔡琴;经典全记录【1--4】\蔡琴;经典全记录【4-2】\蔡琴 - 经典全记录【4--1】.wav
     峰值电平 89.1 %
     抓取速度 6.8 X
     范围质量 100.0 %
     复制 CRC AC0FAD03
     复制成功
没有错误发生
状态报告结尾
---- CUETools DB Plugin V2.1.6
[CTDB TOCID: JIQPWGtSVI3QKafJatcGaWiLAR0-] found
Submit result: already submitted
Track | CTDB Status
  1   | (10/10) Accurately ripped
  2   | (10/10) Accurately ripped
  3   | (10/10) Accurately ripped
  4   | (10/10) Accurately ripped
  5   | (10/10) Accurately ripped
  6   | (10/10) Accurately ripped
  7   | (10/10) Accurately ripped
  8   | (10/10) Accurately ripped
  9   | (10/10) Accurately ripped
10   | (10/10) Accurately ripped
11   | (10/10) Accurately ripped
12   | (10/10) Accurately ripped
13   | (10/10) Accurately ripped
14   | (10/10) Accurately ripped
15   | (10/10) Accurately ripped
16   | ( 9/10) Accurately ripped




回复

使用道具 举报

签到天数: 288 天

[LV.8]以坛为家I

1

主题

864

帖子

2068

积分

注册会员

Rank: 2

积分
2068
威望
575
金币
46
贡献
8
发表于 2018-10-22 16:20:10 | 显示全部楼层
曾经有一阵子经常听她的歌,还不错的歌手。
回复

使用道具 举报

签到天数: 154 天

[LV.7]常住居民III

1

主题

250

帖子

683

积分

新手上路

Rank: 1

积分
683
威望
85
金币
263
贡献
0
发表于 2018-10-22 21:01:38 | 显示全部楼层
中音歌手不是很多,唱的很有特点。一直在听她的歌。
回复

使用道具 举报

签到天数: 330 天

[LV.8]以坛为家I

158

主题

1062

帖子

7922

积分

超级版主

Rank: 8Rank: 8

积分
7922
威望
1459
金币
3512
贡献
420

突出贡献优秀版主荣誉管理

发表于 2018-11-5 01:50:15 | 显示全部楼层
苦兄:空了看一下这个帖,没提取码!
我新发布了帖子《张美玲 -华语流行恋歌4《缘分的谎》随机2分钟片段》,快来围观吧!
回复

使用道具 举报

签到天数: 159 天

[LV.7]常住居民III

35

主题

776

帖子

5456

积分

中级会员

Rank: 3Rank: 3

积分
5456
威望
1075
金币
2275
贡献
255
 楼主| 发表于 2018-11-5 13:45:53 | 显示全部楼层
WSAN 发表于 2018-11-5 01:50
苦兄:空了看一下这个帖,没提取码!

这叫什么事。已补充密码。谢谢阿牛提醒。老了丢三落四的。
回复

使用道具 举报

签到天数: 330 天

[LV.8]以坛为家I

158

主题

1062

帖子

7922

积分

超级版主

Rank: 8Rank: 8

积分
7922
威望
1459
金币
3512
贡献
420

突出贡献优秀版主荣誉管理

发表于 2018-11-6 13:19:58 | 显示全部楼层
苦人 发表于 2018-11-5 13:45
这叫什么事。已补充密码。谢谢阿牛提醒。老了丢三落四的。

正常!人都会出错~苦兄辛苦,谢谢你!
我新发布了帖子《张美玲 -华语流行恋歌4《缘分的谎》随机2分钟片段》,快来围观吧!
回复

使用道具 举报

签到天数: 330 天

[LV.8]以坛为家I

158

主题

1062

帖子

7922

积分

超级版主

Rank: 8Rank: 8

积分
7922
威望
1459
金币
3512
贡献
420

突出贡献优秀版主荣誉管理

发表于 2018-11-6 13:19:58 | 显示全部楼层
苦人 发表于 2018-11-5 13:45
这叫什么事。已补充密码。谢谢阿牛提醒。老了丢三落四的。

正常!人都会出错~苦兄辛苦,谢谢你!
我新发布了帖子《张美玲 -华语流行恋歌4《缘分的谎》随机2分钟片段》,快来围观吧!
回复

使用道具 举报

您需要登录后才可以回帖 登录 | 立即注册

本版积分规则

数字音乐论坛

Archiver|手机版|小黑屋|数字音乐论坛 ( 津ICP备09009336号-1 )

GMT+8, 2018-11-17 04:10 , Processed in 1.302000 second(s), 49 queries .

Powered by Discuz! X3.4

© 2008-2018 Comsenz Inc.|上网要文明 发言要理性 本站禁灌水

快速回复 返回顶部 返回列表