开启辅助访问 收藏本站

数字音乐论坛

 找回密码
 立即注册
查看: 992|回复: 19

[原创] [陈纪玲、怡莉—台语怀念流行金曲4][WAV/565MB][百度]

[复制链接]

签到天数: 28 天

[LV.4]偶尔看看III

6

主题

67

帖子

1083

积分

新手上路

Rank: 1

积分
1083
威望
133
金币
698
贡献
47
发表于 2018-7-26 14:28:18 | 显示全部楼层 |阅读模式
本帖最后由 经典之声 于 2018-7-26 16:50 编辑

目前只有第1、4集,期待其他朋友补上其他几集
专辑名称:台语怀念流行金曲4
歌手:陈纪铃、怡莉
发行公司:金桦唱片有限公司
唱片编号:TCD-01 04
专辑曲目(红字为试听歌曲):
1.爱人仔
2.淡水河边
3.雨夜的花蕊
4.请你信赖我
5.黄昏城
6.亲爱的觅后悔
7.天涯找爱人
8.情女
9.最后的出帆
10.春梦不了情
11.送君心绵绵
12.真情放抹离 (怡莉演唱)
13.碎心恋 (怡莉演唱)
14.春风歌声 (怡莉演唱)
15.春宵梦 (怡莉演唱)
16.酒女悲情 (怡莉演唱)
封面.png
封底.png
碟片.png



游客,如果您要查看本帖隐藏内容请回复

密码.rar (149 Bytes, 下载次数: 7, 售价: 25 金币)

评分

已有 1 人评分威望 金币 贡献 收起 理由
WSAN + 8 + 16 + 8 很给力!

总评分: 威望 + 8 金币 + 16 贡献 + 8 查看全部评分

回复

使用道具 举报

签到天数: 358 天

[LV.8]以坛为家I

162

主题

1122

帖子

8474

积分

超级版主

Rank: 8Rank: 8

积分
8474
威望
1526
金币
3852
贡献
438

突出贡献优秀版主荣誉管理

发表于 2018-7-26 15:05:35 | 显示全部楼层
PERFORMER "陈纪铃"
TITLE "台语怀念流行金曲4"
REM DATE 1992
REM DISCID BD0D1B10
REM COMMENT "ExactAudioCopy v1.3"
REM COMPOSER "刘清池演奏"
FILE "陈纪铃 - 台语怀念流行金曲4.wav" WAVE
  TRACK 01 AUDIO
    PERFORMER "陈纪铃"
    REM COMPOSER "刘清池演奏"
    TITLE "01.爱人仔"
    FLAGS DCP
    INDEX 01 00:00:00
  TRACK 02 AUDIO
    PERFORMER "陈纪铃"
    REM COMPOSER "刘清池演奏"
    TITLE "02.淡水河边"
    FLAGS DCP
    INDEX 00 03:17:22
    INDEX 01 03:19:22
  TRACK 03 AUDIO
    PERFORMER "陈纪铃"
    REM COMPOSER "刘清池演奏"
    TITLE "03.雨夜的花蕊"
    FLAGS DCP
    INDEX 00 07:08:55
    INDEX 01 07:10:55
  TRACK 04 AUDIO
    PERFORMER "陈纪铃"
    REM COMPOSER "刘清池演奏"
    TITLE "04.请你信赖我"
    FLAGS DCP
    INDEX 00 10:19:02
    INDEX 01 10:21:02
  TRACK 05 AUDIO
    PERFORMER "陈纪铃"
    REM COMPOSER "刘清池演奏"
    TITLE "05.黄昏城"
    FLAGS DCP
    INDEX 00 13:31:00
    INDEX 01 13:33:00
  TRACK 06 AUDIO
    PERFORMER "陈纪铃"
    REM COMPOSER "刘清池演奏"
    TITLE "06.亲爱的觅后悔"
    FLAGS DCP
    INDEX 00 17:41:32
    INDEX 01 17:43:32
  TRACK 07 AUDIO
    PERFORMER "陈纪铃"
    REM COMPOSER "刘清池演奏"
    TITLE "07.天涯找爱人"
    FLAGS DCP
    INDEX 00 20:47:02
    INDEX 01 20:49:02
  TRACK 08 AUDIO
    PERFORMER "陈纪铃"
    REM COMPOSER "刘清池演奏"
    TITLE "08.情女"
    FLAGS DCP
    INDEX 00 23:36:22
    INDEX 01 23:38:22
  TRACK 09 AUDIO
    PERFORMER "陈纪铃"
    REM COMPOSER "刘清池演奏"
    TITLE "09.最后的出帆"
    FLAGS DCP
    INDEX 00 27:08:12
    INDEX 01 27:10:12
  TRACK 10 AUDIO
    PERFORMER "陈纪铃"
    REM COMPOSER "刘清池演奏"
    TITLE "10.春梦不了情"
    FLAGS DCP
    INDEX 01 30:37:42
  TRACK 11 AUDIO
    PERFORMER "陈纪铃"
    REM COMPOSER "刘清池演奏"
    TITLE "11.送君心绵绵"
    FLAGS DCP
    INDEX 00 33:55:07
    INDEX 01 33:57:07
  TRACK 12 AUDIO
    PERFORMER "怡  莉"
    REM COMPOSER "刘清池演奏"
    TITLE "12.真情放抹离"
    FLAGS DCP
    INDEX 00 38:37:22
    INDEX 01 38:39:22
  TRACK 13 AUDIO
    PERFORMER "怡  莉"
    REM COMPOSER "刘清池演奏"
    TITLE "13.碎心恋"
    FLAGS DCP
    INDEX 01 42:26:35
  TRACK 14 AUDIO
    PERFORMER "怡  莉"
    REM COMPOSER "刘清池演奏"
    TITLE "14.春风歌声"
    FLAGS DCP
    INDEX 00 45:57:37
    INDEX 01 45:59:37
  TRACK 15 AUDIO
    PERFORMER "怡  莉"
    REM COMPOSER "刘清池演奏"
    TITLE "15.春宵梦"
    FLAGS DCP
    INDEX 00 48:42:35
    INDEX 01 48:44:35
  TRACK 16 AUDIO
    PERFORMER "怡  莉"
    REM COMPOSER "刘清池演奏"
    TITLE "16.酒女悲情"
    FLAGS DCP
    INDEX 00 51:54:05
    INDEX 01 51:56:05
我新发布了帖子《陈铭洲 - 我悄悄蒙上你的眼睛》,快来围观吧!
回复

使用道具 举报

签到天数: 163 天

[LV.7]常住居民III

7

主题

581

帖子

1575

积分

新手上路

Rank: 1

积分
1575
威望
485
金币
8
贡献
16
QQ
发表于 2018-7-26 16:46:04 | 显示全部楼层
经典金曲,谢谢分享。
回复

使用道具 举报

签到天数: 301 天

[LV.8]以坛为家I

9

主题

465

帖子

1543

积分

新手上路

Rank: 1

积分
1543
威望
167
金币
739
贡献
5
发表于 2018-7-26 19:08:20 | 显示全部楼层
谢谢辛苦上传怡莉 台语怀念流行金曲,好歌不断,感谢制作分
回复

使用道具 举报

签到天数: 294 天

[LV.8]以坛为家I

1

主题

837

帖子

1891

积分

新手上路

Rank: 1

积分
1891
威望
520
金币
9
贡献
5
发表于 2018-7-27 07:41:09 | 显示全部楼层
这首怡莉演唱的歌,演绎风格和伴奏都 与平常听过的不同,谢谢分享
回复

使用道具 举报

签到天数: 166 天

[LV.7]常住居民III

1

主题

220

帖子

458

积分

新手上路

Rank: 1

积分
458
威望
50
金币
138
贡献
0
发表于 2018-7-27 09:12:25 | 显示全部楼层
欣赏欣赏陈纪玲怡莉台语怀念流行金曲4
回复

使用道具 举报

签到天数: 344 天

[LV.8]以坛为家I

1

主题

826

帖子

2234

积分

注册会员

Rank: 2

积分
2234
威望
448
金币
511
贡献
1
发表于 2018-7-27 11:15:40 | 显示全部楼层
原汁原味的台语歌曲,伴奏也动听
回复

使用道具 举报

签到天数: 273 天

[LV.8]以坛为家I

1

主题

382

帖子

602

积分

新手上路

Rank: 1

积分
602
威望
107
金币
6
贡献
0
发表于 2018-7-27 14:55:43 | 显示全部楼层
虽然听不懂,但非常喜欢这个调调。感谢!
回复

使用道具 举报

签到天数: 157 天

[LV.7]常住居民III

4

主题

467

帖子

1964

积分

新手上路

Rank: 1

积分
1964
威望
347
金币
774
贡献
29
发表于 2018-7-30 08:17:03 | 显示全部楼层
怡莉的专辑目前只见过几盘磁带,多谢楼主分享!
回复

使用道具 举报

签到天数: 75 天

[LV.6]常住居民II

30

主题

192

帖子

2857

积分

注册会员

Rank: 2

积分
2857
威望
450
金币
1634
贡献
131

发帖高手勋章

发表于 2018-7-30 21:28:34 | 显示全部楼层
乐队风范比单纯的电子琴要好听。
回复

使用道具 举报

您需要登录后才可以回帖 登录 | 立即注册

本版积分规则

数字音乐论坛

Archiver|手机版|小黑屋|数字音乐论坛 ( 津ICP备09009336号-1 )

GMT+8, 2018-12-16 19:43 , Processed in 1.369000 second(s), 57 queries .

Powered by Discuz! X3.4

© 2001-2017 Comsenz Inc.

快速回复 返回顶部 返回列表