请选择 进入手机版 | 继续访问电脑版
开启辅助访问 收藏本站

数字音乐论坛

 找回密码
 立即注册
查看: 288|回复: 13

[原创] [刘清池 - 怀念音乐演奏1][WAV/560MB][百度]

[复制链接]

签到天数: 102 天

[LV.6]常住居民II

368

主题

476

帖子

5万

积分

超级版主

Rank: 8Rank: 8

积分
58319
威望
6779
金币
40562
贡献
3388

斑竹专用勋章

发表于 2018-6-24 10:39:40 | 显示全部楼层 |阅读模式
1.JPG

劉清池  懷念音樂演奏1

金樺唱片有限公司發行(局版臺音字第0533號)

曲目專輯

01.浪跡天涯
02.瀟灑的走
03.讓我默默離開

04.臺北的天空
05.怎能再回頭
06.能不能留住你
07.神鵰俠侶
08.昨夜星辰
09.情歸何處
10.一代佳人
11.回想曲
12.何日君再來
13.苦海女神龍
14.旅途
15.牽情
16.熱淚燙傷我的臉
游客,如果您要查看本帖隐藏内容请回复

2.JPG
3.JPG

刘清池《怀念音乐演奏1》密码.rar

142 Bytes, 下载次数: 12

售价: 30 金币  [记录]

评分

已有 1 人评分威望 金币 贡献 收起 理由
WSAN + 8 + 16 + 8 很给力!

总评分: 威望 + 8 金币 + 16 贡献 + 8 查看全部评分

回复

使用道具 举报

签到天数: 102 天

[LV.6]常住居民II

368

主题

476

帖子

5万

积分

超级版主

Rank: 8Rank: 8

积分
58319
威望
6779
金币
40562
贡献
3388

斑竹专用勋章

 楼主| 发表于 2018-6-24 10:39:56 | 显示全部楼层
Exact Audio Copy V1.3 from 2. September 2016

EAC 抓取日志文件从10. 六月 2018, 20:28

劉清池 / 懷念音樂演奏1

使用驱动器  :PIONEER DVD-RW  DVR-XT11   Adapter: 0  ID: 0

读取模式      : 可靠Secure
使用精确流     : 是
清空音频缓存    : 是
使用 C2 指示器 : 否

读取偏移校正:               : 6
读取 Lead-In 和 Lead-Out : 否
用静音填充抓取中丢失偏移的采样       : 是
去除首尾静音块               : 否
在CRC 计算中使用了空样本       : 是
已用接口                  : 已安装外部 ASPI 接口

所用输出模式: : 内部 WAV 函数
样本格式    : 44.100 Hz; 16 Bit; 立体声


已抓取 CD 的 TOC

     音轨 |    起始    |    长度    |  起始扇区  |  结束扇区  
    --------------------------------------------
      1 |  0:00.00 |  3:33.50 |      0 |  16024
      2 |  3:33.50 |  3:48.67 |  16025 |  33191
      3 |  7:22.42 |  4:12.05 |  33192 |  52096
      4 | 11:34.47 |  3:01.73 |  52097 |  65744
      5 | 14:36.45 |  3:45.62 |  65745 |  82681
      6 | 18:22.32 |  3:08.00 |  82682 |  96781
      7 | 21:30.32 |  3:07.55 |  96782 | 110861
      8 | 24:38.12 |  3:12.58 | 110862 | 125319
      9 | 27:50.70 |  2:59.55 | 125320 | 138799
     10 | 30:50.50 |  3:15.42 | 138800 | 153466
     11 | 34:06.17 |  2:49.08 | 153467 | 166149
     12 | 36:55.25 |  3:39.50 | 166150 | 182624
     13 | 40:35.00 |  3:16.00 | 182625 | 197324
     14 | 43:51.00 |  3:09.37 | 197325 | 211536
     15 | 47:00.37 |  3:36.20 | 211537 | 227756
     16 | 50:36.57 |  3:39.30 | 227757 | 244211


范围状态及错误

已选择范围

     文件名 C:\Users\hp\Desktop\zjhjr\刘清池\劉清池 - 懷念音樂演奏1.wav

     峰值电平 100.0 %
     抓取速度 4.4 X
     范围质量 100.0 %
     复制 CRC 56E17BF2
     复制成功

没有错误发生


AccurateRip 摘要

音轨  1  在数据库中不存在
音轨  2  在数据库中不存在
音轨  3  在数据库中不存在
音轨  4  在数据库中不存在
音轨  5  在数据库中不存在
音轨  6  在数据库中不存在
音轨  7  在数据库中不存在
音轨  8  在数据库中不存在
音轨  9  在数据库中不存在
音轨 10  在数据库中不存在
音轨 11  在数据库中不存在
音轨 12  在数据库中不存在
音轨 13  在数据库中不存在
音轨 14  在数据库中不存在
音轨 15  在数据库中不存在
音轨 16  在数据库中不存在

没有任何音轨在 AccurateRip 数据库中有记录

状态报告结尾

---- CUETools DB Plugin V2.1.6

[CTDB TOCID: 2YLa436QjVIbymz8zWrzB1dZRPI-] disk not present in database
Submit result: 2YLa436QjVIbymz8zWrzB1dZRPI- has been uploaded
回复

使用道具 举报

签到天数: 86 天

[LV.6]常住居民II

25

主题

262

帖子

1672

积分

新手上路

Rank: 1

积分
1672
威望
428
金币
469
贡献
85
发表于 2018-6-24 11:32:41 | 显示全部楼层
感谢老大分享劉清池  懷念音樂演奏,值得收藏。
回复

使用道具 举报

签到天数: 216 天

[LV.7]常住居民III

128

主题

863

帖子

6658

积分

超级版主

Rank: 8Rank: 8

积分
6658
威望
1294
金币
2825
贡献
372

突出贡献优秀版主荣誉管理

发表于 2018-6-24 17:49:54 | 显示全部楼层
qp0800 发表于 2018-6-24 11:32
感谢老大分享劉清池  懷念音樂演奏,值得收藏。

简写、繁写~复制、沾贴一正上!
我新发布了帖子《华乐 - 玫瑰玫瑰我爱你(刘清池编曲/快乐机构)》,快来围观吧!
回复

使用道具 举报

签到天数: 148 天

[LV.7]常住居民III

22

主题

293

帖子

4269

积分

中级会员

Rank: 3Rank: 3

积分
4269
威望
390
金币
3115
贡献
81

发帖高手勋章

发表于 2018-6-24 21:45:08 | 显示全部楼层
刘清池的电子琴演奏很有特色,与張平福的有所不同!
回复

使用道具 举报

签到天数: 192 天

[LV.7]常住居民III

10

主题

407

帖子

1307

积分

新手上路

Rank: 1

积分
1307
威望
277
金币
296
贡献
50
发表于 2018-6-25 07:54:50 | 显示全部楼层
刘清池的演奏很有自己的音色和韵味  听着很舒服  不愧是大师级的作品  谢谢楼主的分享
回复

使用道具 举报

签到天数: 209 天

[LV.7]常住居民III

50

主题

544

帖子

8524

积分

金牌会员

Rank: 6Rank: 6

积分
8524
威望
1214
金币
5039
贡献
508

发帖高手勋章

发表于 2018-6-25 08:46:36 | 显示全部楼层
清脆悦耳,旋律优美,很喜欢!
回复

使用道具 举报

签到天数: 108 天

[LV.6]常住居民II

29

主题

632

帖子

4868

积分

中级会员

Rank: 3Rank: 3

积分
4868
威望
884
金币
2267
贡献
201
发表于 2018-6-25 18:30:48 | 显示全部楼层
喜欢这种音乐专辑,谢谢提供资源分享。
回复

使用道具 举报

签到天数: 87 天

[LV.6]常住居民II

1

主题

138

帖子

389

积分

新手上路

Rank: 1

积分
389
威望
48
金币
155
贡献
0
发表于 2018-6-25 21:02:32 | 显示全部楼层
谢谢楼主分享刘清池的电子琴音乐,超好听的演奏,值得收藏。
回复

使用道具 举报

签到天数: 204 天

[LV.7]常住居民III

1

主题

355

帖子

1406

积分

新手上路

Rank: 1

积分
1406
威望
148
金币
755
贡献
0
发表于 2018-6-27 09:32:01 | 显示全部楼层
非常感谢楼主分享的刘清池/怀念音乐演奏系列,不知道全套有多少张,期待楼主发表续集。
回复

使用道具 举报

您需要登录后才可以回帖 登录 | 立即注册

本版积分规则

数字音乐论坛

Archiver|手机版|小黑屋|数字音乐论坛 ( 津ICP备09009336号-1 )

GMT+8, 2018-7-22 09:08 , Processed in 0.160749 second(s), 31 queries .

Powered by Discuz! X3.4

© 2008-2018 Comsenz Inc.|上网要文明 发言要理性 本站禁灌水

快速回复 返回顶部 返回列表