开启辅助访问 收藏本站

数字音乐论坛

 找回密码
 立即注册
快捷导航
查看: 3691|回复: 28

[光碟] [联唱《红色赞歌》2CD] [WAV/1.58GB][百度]

[复制链接] TA的其它主题
  • TA的每日心情
    郁闷
    1 小时前
  • 签到天数: 125 天

    [LV.7]常住居民III

    升级   0%

    59

    主题

    1901

    帖子

    1万

    积分

    论坛元老

    Rank: 8Rank: 8

    积分
    11525
    威望
    2020
    金币
    4998
    贡献
    581

    发帖高手勋章

    发表于 2018-6-20 20:50:58 | 显示全部楼层 |阅读模式
    本帖最后由 ZHZ 于 2019-12-13 15:06 编辑


    FM.jpg
    FD.jpg
    CD1.jpg
    CD2.jpg





    专辑名称:红色赞歌2CD
    出版发行:珠影白天鹅音像出版社
    ISRC CN-F23-10-521-00/A.J6

    曲目为联唱,CDA45首,CDB45首,
    曲目见封底图片,曲目太多不打字了,见谅。

    游客,如果您要查看本帖隐藏内容请回复




    Exact Audio Copy V1.3 from 2. September 2016

    EAC 抓取日志文件从18. 六月 2018, 15:13

    未知艺术家 / 未知标题

    使用驱动器  :ASUS    DRW-24D1ST   Adapter: 1  ID: 0

    读取模式      : 可靠Secure
    使用精确流     : 是
    清空音频缓存    : 否
    使用 C2 指示器 : 否

    组合读写偏移校正:             : 0
    读取 Lead-In 和 Lead-Out : 否
    用静音填充抓取中丢失偏移的采样       : 是
    去除首尾静音块               : 否
    在CRC 计算中使用了空样本       : 是
    已用接口                  : Win NT 及 2000 本地 Win32 接口

    所用输出模式: : 内部 WAV 函数
    样本格式    : 44.100 Hz; 16 Bit; 立体声


    已抓取 CD 的 TOC

         音轨 |    起始    |    长度    |  起始扇区  |  结束扇区  
        --------------------------------------------
          1 |  0:00.00 | 21:22.06 |      0 |  96155
          2 | 21:22.06 | 20:32.70 |  96156 | 188625
          3 | 41:55.01 | 21:23.07 | 188626 | 284857


    范围状态及错误

    已选择范围

         文件名 F:\未知艺术家 - 未知标题.wav

         峰值电平 100.0 %
         抓取速度 2.9 X
         范围质量 99.9 %
         复制 CRC 039DA5D0
         复制成功

    没有错误发生

    状态报告结尾

    ---- CUETools DB Plugin V2.1.6

    [CTDB TOCID: 4NC7FoQJlao.srtth6DOZZ4NaTg-] disk not present in database
    Submit result: 4NC7FoQJlao.srtth6DOZZ4NaTg- has been uploaded


    Exact Audio Copy V1.3 from 2. September 2016

    EAC 抓取日志文件从18. 六月 2018, 15:57

    未知艺术家 / 未知标题

    使用驱动器  :ASUS    DRW-24D1ST   Adapter: 1  ID: 0

    读取模式      : 可靠Secure
    使用精确流     : 是
    清空音频缓存    : 否
    使用 C2 指示器 : 否

    组合读写偏移校正:             : 0
    读取 Lead-In 和 Lead-Out : 否
    用静音填充抓取中丢失偏移的采样       : 是
    去除首尾静音块               : 否
    在CRC 计算中使用了空样本       : 是
    已用接口                  : Win NT 及 2000 本地 Win32 接口

    所用输出模式: : 内部 WAV 函数
    样本格式    : 44.100 Hz; 16 Bit; 立体声


    已抓取 CD 的 TOC

         音轨 |    起始    |    长度    |  起始扇区  |  结束扇区  
        --------------------------------------------
          1 |  0:00.00 | 21:41.00 |      0 |  97574
          2 | 21:41.00 | 21:30.74 |  97575 | 194398
          3 | 43:11.74 | 21:36.15 | 194399 | 291613


    范围状态及错误

    已选择范围

         文件名 F:\未知艺术家 - 未知标题.wav

         峰值电平 100.0 %
         抓取速度 2.9 X
         范围质量 99.9 %
         复制 CRC C00ECEBA
         复制成功

    没有错误发生

    状态报告结尾

    ---- CUETools DB Plugin V2.1.6

    [CTDB TOCID: wRq1j3kw126RWj5gRAXtIXrhPI0-] disk not present in database
    Submit result: wRq1j3kw126RWj5gRAXtIXrhPI0- has been uploaded

    红色赞歌MM.zip

    174 Bytes, 下载次数: 38

    售价: 8 金币  [记录]

    评分

    参与人数 1威望 +16 金币 +32 贡献 +16 收起 理由
    WSAN + 16 + 32 + 16 感谢参与

    查看全部评分

    回复

    使用道具 举报

  • TA的每日心情
    郁闷
    1 小时前
  • 签到天数: 125 天

    [LV.7]常住居民III

    升级   0%

    59

    主题

    1901

    帖子

    1万

    积分

    论坛元老

    Rank: 8Rank: 8

    积分
    11525
    威望
    2020
    金币
    4998
    贡献
    581

    发帖高手勋章

     楼主| 发表于 2018-6-20 21:17:50 | 显示全部楼层
    本帖最后由 ZHZ 于 2019-12-13 15:09 编辑

    链接已更新,欢迎收藏。
    回复

    使用道具 举报

    该用户从未签到

    升级   100%

    1

    主题

    768

    帖子

    1917

    积分

    禁止访问

    积分
    1917
    威望
    561
    金币
    27
    贡献
    0
    发表于 2018-6-20 22:27:14 | 显示全部楼层
    提示: 作者被禁止或删除 内容自动屏蔽
    回复

    使用道具 举报

  • TA的每日心情
    郁闷
    15 小时前
  • 签到天数: 132 天

    [LV.7]常住居民III

    升级   93.6%

    1

    主题

    927

    帖子

    1872

    积分

    新手上路

    Rank: 1

    积分
    1872
    威望
    47
    金币
    851
    贡献
    0
    发表于 2018-6-21 07:34:40 | 显示全部楼层
    红色经典,很不错的双碟,谢谢zhz扫图分享。
    回复

    使用道具 举报

    该用户从未签到

    升级   100%

    1

    主题

    452

    帖子

    935

    积分

    禁止访问

    积分
    935
    威望
    229
    金币
    25
    贡献
    0
    发表于 2018-6-21 07:51:40 | 显示全部楼层
    提示: 作者被禁止或删除 内容自动屏蔽
    回复

    使用道具 举报

  • TA的每日心情

    3 小时前
  • 签到天数: 70 天

    [LV.6]常住居民II

    升级   22.43%

    1

    主题

    1296

    帖子

    3897

    积分

    中级会员

    Rank: 3Rank: 3

    积分
    3897
    威望
    779
    金币
    1043
    贡献
    0
    发表于 2018-6-21 08:09:28 | 显示全部楼层
    经久不衰的革命老歌曲,影响了几代人,值得收藏,谢谢分享。
    回复

    使用道具 举报

  • TA的每日心情
    慵懒
    4 小时前
  • 签到天数: 122 天

    [LV.7]常住居民III

    升级   0%

    57

    主题

    1131

    帖子

    1万

    积分

    论坛元老

    Rank: 8Rank: 8

    积分
    10022
    威望
    912
    金币
    6820
    贡献
    247
    发表于 2018-6-21 12:53:48 | 显示全部楼层
    学红歌 唱红歌 欢庆我们的党97岁的生日!感谢ZHZ提供分享
    回复

    使用道具 举报

  • TA的每日心情
    开心
    2020-6-16 12:59
  • 签到天数: 7 天

    [LV.3]偶尔看看II

    升级   84.45%

    9

    主题

    134

    帖子

    1689

    积分

    新手上路

    Rank: 1

    积分
    1689
    威望
    211
    金币
    1055
    贡献
    68
    发表于 2018-6-21 19:43:01 | 显示全部楼层
    非常经典的一张民歌,都是名人名人唱,感谢楼主分享
    回复

    使用道具 举报

  • TA的每日心情

    20 小时前
  • 签到天数: 73 天

    [LV.6]常住居民II

    升级   71.5%

    22

    主题

    949

    帖子

    2715

    积分

    注册会员

    Rank: 2

    积分
    2715
    威望
    228
    金币
    1305
    贡献
    5
    发表于 2018-6-21 21:05:20 | 显示全部楼层
    谢谢分享红色赞歌。太好了,值得收藏
    回复

    使用道具 举报

  • TA的每日心情

    3 天前
  • 签到天数: 27 天

    [LV.4]偶尔看看III

    升级   14.6%

    52

    主题

    1234

    帖子

    8719

    积分

    金牌会员

    Rank: 6Rank: 6

    积分
    8719
    威望
    1608
    金币
    3898
    贡献
    371
    发表于 2018-6-22 10:18:35 | 显示全部楼层
    中唱【红太阳】系列。谢谢提供资源分享。
    回复

    使用道具 举报

    您需要登录后才可以回帖 登录 | 立即注册

    本版积分规则

    Archiver|手机版|小黑屋|数字音乐论坛 ( 津ICP备09009336号-1 )

    GMT+8, 2020-8-5 21:51 , Processed in 0.468750 second(s), 44 queries .

    Powered by Discuz! X3.4 Licensed

    © 2008-2020 上网要文明 发言要理性 本站禁灌水

    快速回复 返回顶部 返回列表