开启辅助访问 收藏本站

数字音乐论坛

 找回密码
 立即注册
查看: 521|回复: 10

[原创] [甄妮 - 爱情长跑][WAV/388MB][百度]

[复制链接]

签到天数: 141 天

[LV.7]常住居民III

447

主题

598

帖子

6万

积分

管理员

Rank: 9Rank: 9Rank: 9

积分
68072
威望
7568
金币
48195
贡献
3783

斑竹专用勋章

发表于 2018-4-28 22:37:48 | 显示全部楼层 |阅读模式
本帖最后由 zjhjr 于 2018-4-29 10:50 编辑

IMG_1451.JPG

甄妮
愛情長跑

產品條碼:4714041753738
產品編號:LS2382
發行公司:海山
發行日期:2015/09/16

1. 說不完的故事 (電影“自然”插曲)
2. 今天明天 (電影“自然”插曲)
3. 夏日玫瑰 (電影“自然”插曲)
4. 願望
5. 真誠感動你 (電影“自然”插曲)
6. 青青年華 (電影“愛情長跑”插曲)
7. 愛情長跑 (電影“愛情長跑”主題曲)
8. 我的期待 (電影“愛情長跑”插曲)
9. 榕榕樹下

10. 有真情有活力
11. 朵朵彩雲 (電影“愛情長跑”插曲)
12. 愛情的道路 (電影“愛情長跑”插曲)
游客,如果您要查看本帖隐藏内容请回复



Exact Audio Copy V1.0 beta 3 from 29. August 2011
EAC 抓取日志文件从2. 二月 2017, 14:42
甄妮 / 愛情長跑
使用驱动器  :PIONEER DVD-RW  DVR-XT11   Adapter: 1  ID: 0
读取模式      : 可靠Secure
使用精确流     : 是
清空音频缓存    : 是
使用 C2 指示器 : 否
读取偏移校正:               : 6
读取 Lead-In 和 Lead-Out : 否
用静音填充抓取中丢失偏移的采样       : 是
去除首尾静音块               : 否
在CRC 计算中使用了空样本       : 是
已用接口                  : Win NT 及 2000 本地 Win32 接口
所用输出模式: : 内部 WAV 函数
样本格式    : 44.100 Hz; 16 Bit; 立体声

已抓取 CD 的 TOC
     音轨 |    起始    |    长度    |  起始扇区  |  结束扇区  
    --------------------------------------------
      1 |  0:00.00 |  3:04.34 |      0 |  13833
      2 |  3:04.34 |  2:02.55 |  13834 |  23038
      3 |  5:07.14 |  3:00.24 |  23039 |  36562
      4 |  8:07.38 |  2:46.41 |  36563 |  49053
      5 | 10:54.04 |  3:21.53 |  49054 |  64181
      6 | 14:15.57 |  3:57.27 |  64182 |  81983
      7 | 18:13.09 |  2:42.68 |  81984 |  94201
      8 | 20:56.02 |  4:07.39 |  94202 | 112765
      9 | 25:03.41 |  2:32.06 | 112766 | 124171
     10 | 27:35.47 |  3:24.74 | 124172 | 139545
     11 | 31:00.46 |  3:38.74 | 139546 | 155969
     12 | 34:39.45 |  2:55.74 | 155970 | 169168

范围状态及错误
已选择范围
     文件名 C:\Users\hp\Desktop\甄妮\甄妮 - 愛情長跑.wav
     峰值电平 100.0 %
     抓取速度 2.7 X
     范围质量 99.9 %
     复制 CRC 8E8613B1
     复制成功
没有错误发生

AccurateRip 摘要

音轨  1  在数据库中不存在
音轨  2  在数据库中不存在
音轨  3  在数据库中不存在
音轨  4  在数据库中不存在
音轨  5  在数据库中不存在
音轨  6  在数据库中不存在
音轨  7  在数据库中不存在
音轨  8  在数据库中不存在
音轨  9  在数据库中不存在
音轨 10  在数据库中不存在
音轨 11  在数据库中不存在
音轨 12  在数据库中不存在

没有任何音轨在 AccurateRip 数据库中有记录
状态报告结尾


IMG_1452.JPG
IMG_1453.JPG

甄妮《爱情长跑》密码.rar

127 Bytes, 下载次数: 11

售价: 20 金币  [记录]

回复

使用道具 举报

签到天数: 353 天

[LV.8]以坛为家I

1

主题

932

帖子

2275

积分

注册会员

Rank: 2

积分
2275
威望
464
金币
415
贡献
0
发表于 2018-4-29 06:57:55 | 显示全部楼层
提前祝zjhjr五一快乐,谢谢了!
回复

使用道具 举报

签到天数: 362 天

[LV.8]以坛为家I

76

主题

1061

帖子

1万

积分

贵宾

Rank: 7Rank: 7Rank: 7

积分
14930
威望
1821
金币
9634
贡献
578

贵宾专用勋章

发表于 2018-4-29 07:38:09 | 显示全部楼层
《爱情长跑》是林青霞和邓光荣主演的一部台湾文艺片。
我新发布了帖子《[杨钰莹 - 梦中花][WAV/445MB][百度][代发]》,快来围观吧!
回复

使用道具 举报

签到天数: 343 天

[LV.8]以坛为家I

1

主题

821

帖子

2272

积分

注册会员

Rank: 2

积分
2272
威望
444
金币
562
贡献
1
发表于 2018-4-29 10:43:32 | 显示全部楼层
当年进戏院看这些港台电影,里面的主题曲插曲旋律都令人兴奋
回复

使用道具 举报

签到天数: 184 天

[LV.7]常住居民III

35

主题

859

帖子

5677

积分

中级会员

Rank: 3Rank: 3

积分
5677
威望
1130
金币
2303
贡献
255
发表于 2018-4-29 16:01:48 | 显示全部楼层
谢谢提供资源。收藏了。
回复

使用道具 举报

签到天数: 311 天

[LV.8]以坛为家I

2

主题

976

帖子

2402

积分

注册会员

Rank: 2

积分
2402
威望
615
金币
196
贡献
0
发表于 2018-4-30 21:10:32 | 显示全部楼层
2部电影“爱情长跑”和“自然”原声带全部歌曲,分别由骆明道和刘家昌作曲。专辑每首歌都非常好听,首首都是儿时的美丽记忆。
回复

使用道具 举报

签到天数: 317 天

[LV.8]以坛为家I

3

主题

981

帖子

2389

积分

注册会员

Rank: 2

积分
2389
威望
662
金币
76
贡献
8
发表于 2018-5-2 08:44:27 | 显示全部楼层
当年曾经买过一盘她的磁带,还不错
回复

使用道具 举报

签到天数: 22 天

[LV.4]偶尔看看III

1

主题

99

帖子

405

积分

禁止访问

积分
405
威望
64
金币
178
贡献
0
发表于 2018-5-4 14:52:49 | 显示全部楼层
提示: 作者被禁止或删除 内容自动屏蔽
回复

使用道具 举报

签到天数: 15 天

[LV.4]偶尔看看III

1

主题

55

帖子

217

积分

新手上路

Rank: 1

积分
217
威望
38
金币
86
贡献
0
发表于 2018-9-22 22:36:00 | 显示全部楼层
谢谢楼主的好音乐,老歌是经典
回复

使用道具 举报

签到天数: 13 天

[LV.3]偶尔看看II

1

主题

60

帖子

206

积分

新手上路

Rank: 1

积分
206
威望
43
金币
60
贡献
0
QQ
发表于 2018-10-12 14:56:25 | 显示全部楼层
很好听的歌曲
唯音乐可以穿越古今,行遍世界
回复

使用道具 举报

您需要登录后才可以回帖 登录 | 立即注册

本版积分规则

数字音乐论坛

Archiver|手机版|小黑屋|数字音乐论坛 ( 津ICP备09009336号-1 )

GMT+8, 2018-12-15 22:40 , Processed in 1.317000 second(s), 56 queries .

Powered by Discuz! X3.4

© 2001-2017 Comsenz Inc.

快速回复 返回顶部 返回列表