请选择 进入手机版 | 继续访问电脑版
开启辅助访问 收藏本站

数字音乐论坛

 找回密码
 立即注册
查看: 317|回复: 12

[原创] [庄学忠 珍藏情歌 2CD][无损/百度云][WAV/1.37GB]

[复制链接]

签到天数: 217 天

[LV.7]常住居民III

197

主题

505

帖子

2万

积分

管理员

Rank: 9Rank: 9Rank: 9

积分
23375
威望
3057
金币
14945
贡献
1786

最佳新人活跃会员热心会员推广达人宣传达人灌水之王突出贡献优秀版主荣誉管理论坛元老

发表于 2018-4-15 11:02:44 | 显示全部楼层 |阅读模式
【專輯名稱】:庄学忠 珍藏情歌 2CD
【專輯歌手】:庄学忠
【發行日期】:2001
【唱片公司】:江西文化音像出版社出版
【專輯語言】:國語
【檔案大小】:1.37GB

【音樂格式】:WAV
【存放空間】:百度云

【专辑封面】: www.22090.com
【專輯曲目】:
 CD1:
 01.爱的代价 02.心声泪痕
03.轻轻呼唤你 04.一缕相思情
05.生命如花篮 06.最后夜快车
07.教我认识你 08.希望在明天
09.是谁抢走我的爱人
10.俩相依 11.浪子的眼泪
12.谁能禁止我的爱
13.为什么要流泪
14.再吻我一次 15.不得了
16.淡淡情愁 17.男人的眼泪
18.奇妙的约会 19.别再追问
 CD2: 01.榕树下 02.365里路
03.暗淡的月 14.古月照今尘
05.一把情种 06.忘也忘不了
07.爱情如水向东流
08.为什么离开我
09.偷心的人 10.相思苦
11.无情火车 12.誓言
13.想当年 14.河山万里情
15.心上人 16.船歌
17.你曾经爱过我
18.情人的阳光
19.爱我在今宵

试听:无情火车

下载地址:
游客,如果您要查看本帖隐藏内容请回复
数字音乐论坛 四季歌收藏制作 
 本音频作品严禁盗卖!



评分

已有 1 人评分威望 金币 贡献 收起 理由
zjhjr + 16 + 32 + 16 很给力!

总评分: 威望 + 16 金币 + 32 贡献 + 16 查看全部评分

我新发布了帖子《[白雪《永恒的军礼》][320K/123MB/百度][2018]》,快来围观吧!
回复

使用道具 举报

签到天数: 217 天

[LV.7]常住居民III

197

主题

505

帖子

2万

积分

管理员

Rank: 9Rank: 9Rank: 9

积分
23375
威望
3057
金币
14945
贡献
1786

最佳新人活跃会员热心会员推广达人宣传达人灌水之王突出贡献优秀版主荣誉管理论坛元老

 楼主| 发表于 2018-4-15 11:03:53 | 显示全部楼层
Exact Audio Copy V1.1 from 23. June 2015

EAC 抓取日志文件从20. 十月 2016, 19:31

庄学忠 / 珍藏情歌 CD1

使用驱动器  :PIONEER DVD-RW  DVR-221L   Adapter: 1  ID: 0

读取模式      : 可靠Secure
使用精确流     : 是
清空音频缓存    : 是
使用 C2 指示器 : 否

读取偏移校正:               : 0
读取 Lead-In 和 Lead-Out : 否
用静音填充抓取中丢失偏移的采样       : 是
去除首尾静音块               : 否
在CRC 计算中使用了空样本       : 是
已用接口                  : Win NT 及 2000 本地 Win32 接口

所用输出模式: : 内部 WAV 函数
样本格式    : 44.100 Hz; 16 Bit; 立体声


已抓取 CD 的 TOC

     音轨 |    起始    |    长度    |  起始扇区  |  结束扇区  
    --------------------------------------------
      1 |  0:00.00 |  2:57.40 |      0 |  13314
      2 |  2:57.40 |  3:25.70 |  13315 |  28759
      3 |  6:23.35 |  3:48.12 |  28760 |  45871
      4 | 10:11.47 |  3:42.48 |  45872 |  62569
      5 | 13:54.20 |  3:34.10 |  62570 |  78629
      6 | 17:28.30 |  3:33.69 |  78630 |  94673
      7 | 21:02.24 |  4:08.13 |  94674 | 113286
      8 | 25:10.37 |  4:09.19 | 113287 | 131980
      9 | 29:19.56 |  4:01.65 | 131981 | 150120
     10 | 33:21.46 |  4:21.25 | 150121 | 169720
     11 | 37:42.71 |  2:52.04 | 169721 | 182624
     12 | 40:35.00 |  4:01.57 | 182625 | 200756
     13 | 44:36.57 |  4:21.27 | 200757 | 220358
     14 | 48:58.09 |  3:47.38 | 220359 | 237421
     15 | 52:45.47 |  4:19.47 | 237422 | 256893
     16 | 57:05.19 |  3:19.34 | 256894 | 271852
     17 | 60:24.53 |  3:56.73 | 271853 | 289625
     18 | 64:21.51 |  2:52.11 | 289626 | 302536
     19 | 67:13.62 |  3:41.73 | 302537 | 319184


范围状态及错误

已选择范围

     文件名 I:\数字音乐论坛\庄学忠 珍藏情歌 2CD\庄学忠 - 珍藏情歌 CD1.wav

     峰值电平 100.0 %
     抓取速度 2.1 X
     范围质量 99.9 %
     复制 CRC 5F918D7C
     复制成功

没有错误发生

状态报告结尾

---- CUETools DB Plugin V2.1.6

[CTDB TOCID: J0cNoiRvoSVXigFedAsEKjmgyW4-] database access error: 操作超时
Exact Audio Copy V1.1 from 23. June 2015

EAC 抓取日志文件从20. 十月 2016, 21:06

庄学忠 / 珍藏情歌 CD2

使用驱动器  :PIONEER DVD-RW  DVR-221L   Adapter: 1  ID: 0

读取模式      : 可靠Secure
使用精确流     : 是
清空音频缓存    : 是
使用 C2 指示器 : 否

读取偏移校正:               : 0
读取 Lead-In 和 Lead-Out : 否
用静音填充抓取中丢失偏移的采样       : 是
去除首尾静音块               : 否
在CRC 计算中使用了空样本       : 是
已用接口                  : Win NT 及 2000 本地 Win32 接口

所用输出模式: : 内部 WAV 函数
样本格式    : 44.100 Hz; 16 Bit; 立体声


已抓取 CD 的 TOC

     音轨 |    起始    |    长度    |  起始扇区  |  结束扇区  
    --------------------------------------------
      1 |  0:00.00 |  3:58.05 |      0 |  17854
      2 |  3:58.05 |  4:23.17 |  17855 |  37596
      3 |  8:21.22 |  2:59.31 |  37597 |  51052
      4 | 11:20.53 |  4:14.50 |  51053 |  70152
      5 | 15:35.28 |  4:15.32 |  70153 |  89309
      6 | 19:50.60 |  3:06.33 |  89310 | 103292
      7 | 22:57.18 |  2:37.01 | 103293 | 115068
      8 | 25:34.19 |  3:39.05 | 115069 | 131498
      9 | 29:13.24 |  4:01.07 | 131499 | 149580
     10 | 33:14.31 |  3:07.43 | 149581 | 163648
     11 | 36:21.74 |  3:15.06 | 163649 | 178279
     12 | 39:37.05 |  4:05.55 | 178280 | 196709
     13 | 43:42.60 |  3:10.28 | 196710 | 210987
     14 | 46:53.13 |  3:44.53 | 210988 | 227840
     15 | 50:37.66 |  3:22.11 | 227841 | 243001
     16 | 54:00.02 |  4:29.23 | 243002 | 263199
     17 | 58:29.25 |  3:28.05 | 263200 | 278804
     18 | 61:57.30 |  3:07.57 | 278805 | 292886
     19 | 65:05.12 |  3:44.24 | 292887 | 309710


范围状态及错误

已选择范围

     文件名 I:\数字音乐论坛\庄学忠 珍藏情歌 2CD\庄学忠 - 珍藏情歌 CD2.wav

     峰值电平 100.0 %
     抓取速度 2.0 X
     范围质量 100.0 %
     复制 CRC CA6A764E
     复制成功

没有错误发生

状态报告结尾

---- CUETools DB Plugin V2.1.6

[CTDB TOCID: jOTO7LQ53_s9wSu9xofOTMxGw9s-] disk not present in database
Submit result: jOTO7LQ53_s9wSu9xofOTMxGw9s- has been uploaded


我新发布了帖子《[白雪《永恒的军礼》][320K/123MB/百度][2018]》,快来围观吧!
回复

使用道具 举报

签到天数: 210 天

[LV.7]常住居民III

1

主题

639

帖子

1879

积分

新手上路

Rank: 1

积分
1879
威望
396
金币
447
贡献
1
发表于 2018-4-15 11:15:41 | 显示全部楼层
这把经典男声也陪伴我们好多年了,回味庄学忠早期作品
回复

使用道具 举报

签到天数: 67 天

[LV.6]常住居民II

1

主题

81

帖子

209

积分

新手上路

Rank: 1

积分
209
威望
12
金币
104
贡献
0
发表于 2018-4-15 17:55:50 | 显示全部楼层
老牌新马歌手,实力派演唱,感谢四季分享美妙歌曲
回复

使用道具 举报

签到天数: 193 天

[LV.7]常住居民III

10

主题

408

帖子

1310

积分

新手上路

Rank: 1

积分
1310
威望
277
金币
298
贡献
50
发表于 2018-4-15 19:21:33 | 显示全部楼层
陪伴多年的歌声  现在听着还会有阵阵当时的回忆
回复

使用道具 举报

签到天数: 49 天

[LV.5]常住居民I

5

主题

76

帖子

533

积分

新手上路

Rank: 1

积分
533
威望
63
金币
316
贡献
15
发表于 2018-4-15 22:32:09 | 显示全部楼层
感谢分享庄学忠的老歌专辑经典老男声!
回复

使用道具 举报

签到天数: 190 天

[LV.7]常住居民III

1

主题

250

帖子

846

积分

新手上路

Rank: 1

积分
846
威望
58
金币
480
贡献
0
发表于 2018-4-16 06:34:14 | 显示全部楼层
感谢四季分享 庄学忠 珍藏情歌 2CD
回复

使用道具 举报

签到天数: 118 天

[LV.6]常住居民II

1

主题

144

帖子

576

积分

新手上路

Rank: 1

积分
576
威望
18
金币
396
贡献
0
发表于 2018-4-16 16:03:02 | 显示全部楼层
西亚歌坛上公认的“冠军歌王”。并非浪得虚名,特喜欢他的歌,可惜之前收藏的都是MP3,这下爽了。
回复

使用道具 举报

签到天数: 99 天

[LV.6]常住居民II

1

主题

457

帖子

1309

积分

禁止访问

积分
1309
威望
348
金币
156
贡献
0
发表于 2018-4-16 20:04:56 | 显示全部楼层
提示: 作者被禁止或删除 内容自动屏蔽
回复

使用道具 举报

签到天数: 210 天

[LV.7]常住居民III

28

主题

1744

帖子

5578

积分

中级会员

Rank: 3Rank: 3

积分
5578
威望
1405
金币
970
贡献
54
发表于 2018-4-17 06:40:29 | 显示全部楼层
当年号称76次冠军歌王,名不虚传。感谢站长分享!
回复

使用道具 举报

您需要登录后才可以回帖 登录 | 立即注册

本版积分规则

数字音乐论坛

Archiver|手机版|小黑屋|数字音乐论坛 ( 津ICP备09009336号-1 )

GMT+8, 2018-7-23 20:03 , Processed in 0.150913 second(s), 27 queries .

Powered by Discuz! X3.4

© 2008-2018 Comsenz Inc.|上网要文明 发言要理性 本站禁灌水

快速回复 返回顶部 返回列表