请选择 进入手机版 | 继续访问电脑版

数字音乐论坛

 找回密码
 立即注册
123
返回列表 发新帖
楼主: 苦人

[原创] [于淑珍《中国民歌选》][WAV/450MB][百度]

[复制链接]
  • TA的每日心情
    闭嘴
    前天 21:58
  • 0

    主题

    9

    帖子

    86

    积分

    新手上路

    Rank: 1

    积分
    86
    威望
    9
    金币
    59
    贡献
    0
    发表于 2017-8-25 16:21:57 | 显示全部楼层

    让我想起了那段时光,感谢楼主分享!
    回复

    使用道具 举报

  • TA的每日心情
    开心
    2017-9-8 13:42
  • 0

    主题

    31

    帖子

    91

    积分

    新手上路

    Rank: 1

    积分
    91
    威望
    29
    金币
    2
    贡献
    0
    发表于 2017-8-27 11:47:03 | 显示全部楼层
    和我同年 啊
    回复

    使用道具 举报

  • TA的每日心情
    开心
    昨天 08:20
  • 2

    主题

    13

    帖子

    177

    积分

    新手上路

    Rank: 1

    积分
    177
    威望
    27
    金币
    101
    贡献
    9
    发表于 2017-8-27 16:07:30 | 显示全部楼层
    谢谢分享于淑珍的《中国民歌选》
    回复

    使用道具 举报

  • TA的每日心情
    难过
    2017-9-11 08:55
  • 1

    主题

    11

    帖子

    70

    积分

    新手上路

    Rank: 1

    积分
    70
    威望
    9
    金币
    41
    贡献
    0
    发表于 2017-8-28 15:03:36 | 显示全部楼层
    曾有的盒带,非常喜欢的老艺术家,音色非常美!
    回复

    使用道具 举报

  • TA的每日心情
    擦汗
    昨天 12:13
  • 7

    主题

    19

    帖子

    974

    积分

    新手上路

    Rank: 1

    积分
    974
    威望
    158
    金币
    562
    贡献
    67

    发帖高手勋章

    发表于 2017-9-3 13:32:13 | 显示全部楼层
    本帖最后由 慧点 于 2017-9-3 14:20 编辑

    PERFORMER "于淑珍"
    TITLE "中国民歌"
    FILE "中国民歌选(修).WAV" WAVE
      TRACK 01 AUDIO
        TITLE "四季调"
        PERFORMER "于淑珍"
        INDEX 01 00:00:00
      TRACK 02 AUDIO
        TITLE "三十里铺"
        PERFORMER "于淑珍"
        INDEX 01 02:47:00
      TRACK 03 AUDIO
        TITLE "挂红灯"
        PERFORMER "于淑珍"
        INDEX 01 06:46:48
      TRACK 04 AUDIO
        TITLE "瞧情郎"
        PERFORMER "于淑珍"
        INDEX 01 08:42:00
      TRACK 05 AUDIO
        TITLE "扎风筝"
        PERFORMER "于淑珍"
        INDEX 01 12:27:21
      TRACK 06 AUDIO
        TITLE "月光下的凤尾竹"
        PERFORMER "于淑珍"
        INDEX 01 16:40:00
      TRACK 07 AUDIO
        TITLE "新四季歌"
        PERFORMER "于淑珍"
        INDEX 01 22:06:18
      TRACK 08 AUDIO
        TITLE "走西口"
        PERFORMER "于淑珍"
        INDEX 01 25:50:00
      TRACK 09 AUDIO
        TITLE "柿子红"
        PERFORMER "于淑珍"
        INDEX 01 29:57:10
      TRACK 10 AUDIO
        TITLE "五哥放羊"
        PERFORMER "于淑珍"
        INDEX 01 31:55:18
      TRACK 11 AUDIO
        TITLE "茉莉花"
        PERFORMER "于淑珍"
        INDEX 01 35:44:50
      TRACK 12 AUDIO
        TITLE "采花"
        PERFORMER "于淑珍"
        INDEX 01 38:55:58
      TRACK 13 AUDIO
        TITLE "槐花几时开"
        PERFORMER "于淑珍"
        INDEX 01 40:45:27
      TRACK 14 AUDIO
        TITLE "小看戏"
        PERFORMER "于淑珍"
        INDEX 01 42:21:00

    回复

    使用道具 举报

  • TA的每日心情
    开心
    昨天 21:01
  • 1

    主题

    97

    帖子

    818

    积分

    vip

    Rank: 5Rank: 5

    积分
    818
    威望
    111
    金币
    493
    贡献
    6
    发表于 2017-9-4 20:57:43 | 显示全部楼层
    于淑珍的歌声深情款款,柔情蜜意
    回复

    使用道具 举报

    该用户从未签到

    0

    主题

    75

    帖子

    269

    积分

    新手上路

    Rank: 1

    积分
    269
    威望
    74
    金币
    45
    贡献
    1
    发表于 2017-9-6 21:10:02 | 显示全部楼层
    我喜欢那首月光下的凤尾竹
    回复

    使用道具 举报

  • TA的每日心情
    闭嘴
    6 天前
  • 0

    主题

    8

    帖子

    42

    积分

    新手上路

    Rank: 1

    积分
    42
    威望
    8
    金币
    18
    贡献
    0
    发表于 6 天前 | 显示全部楼层
    灰常好听的声音,老一辈歌唱家年青时代都很厉害。
    回复

    使用道具 举报

    您需要登录后才可以回帖 登录 | 立即注册

    本版积分规则

    Archiver|手机版|小黑屋|数字音乐论坛 我要啦免费统计

    GMT+8, 2017-9-21 07:38 , Processed in 0.231413 second(s), 25 queries .

    Powered by Discuz! X3.4

    © 2008-2017 Comsenz Inc.|Style by 数字音乐论坛

    快速回复 返回顶部 返回列表