开启辅助访问 天气与日历 收藏本站充金币

数字音乐论坛

 找回密码
 立即注册
快捷导航
查看: 281|回复: 13

[光碟] 牟玄甫、张也、孙明杰、吴静、吴鸣 -《喜洋洋》民歌、影视歌曲大联唱[WAV整轨][百度]

[复制链接] TA的其它主题
  • TA的每日心情
    开心
    2021-3-10 01:56
  • 签到天数: 107 天

    [LV.6]常住居民II

    升级   28.07%

    14

    主题

    674

    帖子

    8921

    积分

    金牌会员

    Rank: 5Rank: 5

    鲜花(3) 鸡蛋(0)
    发表于 2021-2-10 08:56:48 | 显示全部楼层 |阅读模式
    本帖最后由 1818188 于 2021-2-10 08:58 编辑

    北京青少年音像出版
    天津天宝电子制作
    1993年
    张也、牟玄甫、孙明杰、吴静、吴鸣(无鸣)

    因为没有具体曲目演唱对应者,就从其他专辑中找同名歌手的演唱做试听对比。做了一个演唱对应名不知是否准确,欢迎指出矫正。

    曲目1

    1.淘金令          器乐演奏
    2.迎春花开        吴静
    3.杨柳青          吴静
    4.五哥放羊        张也
    5.康定情歌        孙明杰
    6.打起手鼓唱起歌  吴静
    7.回娘家          孙明杰
    8.新年祝福        吴静

    曲目2

    1.马铃儿响来玉鸟儿唱   张也、牟玄甫
    2.新疆好               无鸣
    3.北京的金山上         无鸣
    4.春风吹来             吴静
    5.谁不说俺家乡好       张也
    6.嗺咚嗺               张也、牟玄甫
    7.草原组曲             器乐演奏
    8.忠实的心想念你       孙明杰

    曲目3

    1.祝寿                   器乐演奏
    2.跑旱船                 牟玄甫
    3.红色娘子军插曲         器乐演奏
    4.初一到十五             张也
    5.走绛州                 孙明杰  
    6.心中喜欢就说爱         吴静
    7.天津时调               孙明杰
    8.九子歌                 吴静
    9.沿着社会主义大道奔前方  器乐演奏 后面还有一段器乐不知道是什么名称

    曲目4

    1.九九艳阳天          无鸣、牟玄甫
    2.掀起你的盖头来       孙明杰
    3.红色娘子军插曲       器乐演奏     
    4.美丽的姑娘           牟玄甫
    5.器乐演奏              
    6.人说山西好风光       张也
    7.太阳出来喜洋洋       牟玄甫
    8.祝酒歌               孙明杰

    曲目5.

    1.公关小姐主题歌      无鸣
    2.悲栗情插曲          无鸣
    3.中国刑警插曲        孙明杰  
    4.篱笆、女人、狗      无鸣
    5.我的思念-罪与罚插曲 吴静           
    6.罪与罚插曲          吴静         
    7.平凡的世界         
    8.悲栗情主题歌        吴静  


    喜洋洋1-1.jpg
    喜洋洋2-1.jpg
    喜洋洋3-1.jpg

    游客,如果您要查看本帖隐藏内容请回复




    解压密码.rar

    160 Bytes, 下载次数: 29

    售价: 88 金币  [记录]

    评分

    参与人数 1威望 +8 金币 +16 贡献 +8 收起 理由
    四季歌 + 8 + 16 + 8

    查看全部评分

    回复 鲜花(3) 鸡蛋(0)

    使用道具 举报

  • TA的每日心情
    开心
    2021-3-10 01:56
  • 签到天数: 107 天

    [LV.6]常住居民II

    升级   28.07%

    14

    主题

    674

    帖子

    8921

    积分

    金牌会员

    Rank: 5Rank: 5

    鲜花(3) 鸡蛋(0)
     楼主| 发表于 2021-2-10 08:59:31 | 显示全部楼层
    Exact Audio Copy V1.3 from 2. September 2016

    EAC 抓取日志文件从6. 十二月 2020, 4:35

    张也、牟玄甫、孙明杰、吴静、吴鸣 / 《喜洋洋》民歌、影视歌曲大联唱

    使用驱动器  :PIONEER DVD-RW  DVR-S21   Adapter: 1  ID: 0

    读取模式      : 可靠Secure
    使用精确流     : 是
    清空音频缓存    : 否
    使用 C2 指示器 : 否

    读取偏移校正:               : 6
    读取 Lead-In 和 Lead-Out : 否
    用静音填充抓取中丢失偏移的采样       : 是
    去除首尾静音块               : 否
    在CRC 计算中使用了空样本       : 是
    已用接口                  : Win NT 及 2000 本地 Win32 接口

    所用输出模式: : 内部 WAV 函数
    样本格式    : 44.100 Hz; 16 Bit; 立体声


    已抓取 CD 的 TOC

         音轨 |    起始    |    长度    |  起始扇区  |  结束扇区  
        --------------------------------------------
          1 |  0:00.00 |  9:36.38 |      0 |  43237
          2 |  9:36.38 | 10:37.50 |  43238 |  91062
          3 | 20:14.13 | 11:16.50 |  91063 | 141812
          4 | 31:30.63 |  9:03.50 | 141813 | 182587
          5 | 40:34.38 | 12:51.00 | 182588 | 240412


    范围状态及错误

    已选择范围

         文件名 D:\XXXX原抓\张也、牟玄甫、孙明杰、吴静、吴鸣 - 《喜洋洋》民歌、影视歌曲大联唱.wav

         峰值电平 100.0 %
         抓取速度 9.3 X
         范围质量 99.9 %
         复制 CRC DDC82759
         复制成功

    没有错误发生

    状态报告结尾

    ---- CUETools DB Plugin V2.1.6

    [CTDB TOCID: nQf1tPjJJPI6u4U_M2pvdsVSy_8-] disk not present in database
    Submit result: nQf1tPjJJPI6u4U_M2pvdsVSy_8- has been uploaded

    回复 鲜花(3) 鸡蛋(0)

    使用道具 举报

  • TA的每日心情

    6 小时前
  • 签到天数: 346 天

    [LV.8]以坛为家I

    升级   12%

    19

    主题

    2551

    帖子

    8680

    积分

    金牌会员

    Rank: 5Rank: 5

    鲜花(0) 鸡蛋(0)
    发表于 2021-2-10 09:04:11 | 显示全部楼层
    好奇特的封面,谢谢分享喜洋洋老歌联唱
    回复 鲜花(0) 鸡蛋(0)

    使用道具 举报

  • TA的每日心情
    慵懒
    4 小时前
  • 签到天数: 370 天

    [LV.9]以坛为家II

    升级   20.83%

    2

    主题

    1721

    帖子

    3833

    积分

    中级会员

    Rank: 3Rank: 3

    鲜花(0) 鸡蛋(0)
    发表于 2021-2-10 09:31:38 | 显示全部楼层
    春节越来越近了,喜洋洋专辑很喜庆,名家演唱,过节了听他最合适。
    回复 鲜花(0) 鸡蛋(0)

    使用道具 举报

  • TA的每日心情
    慵懒
    5 小时前
  • 签到天数: 385 天

    [LV.9]以坛为家II

    升级   100%

    141

    主题

    3012

    帖子

    3万

    积分

    VIP

    Rank: 5Rank: 5

    贵宾专用勋章

    鲜花(15) 鸡蛋(0)
    发表于 2021-2-10 10:11:57 | 显示全部楼层
    张也联袂东方歌舞团的几位歌手演唱的联唱唱片。
    回复 鲜花(15) 鸡蛋(0)

    使用道具 举报

  • TA的每日心情
    无聊
    4 小时前
  • 签到天数: 370 天

    [LV.9]以坛为家II

    升级   100%

    22

    主题

    795

    帖子

    9833

    积分

    版主

    Rank: 7Rank: 7Rank: 7

    斑竹专用勋章

    鲜花(6) 鸡蛋(0)
    发表于 2021-2-10 11:50:36 | 显示全部楼层
    封面的刺绣很别致,让人想起了以前待出嫁的女孩子们为心上人绣的鞋垫,感谢抓轨分享!
    回复 鲜花(6) 鸡蛋(0)

    使用道具 举报

  • TA的每日心情
    郁闷
    3 小时前
  • 签到天数: 195 天

    [LV.7]常住居民III

    升级   41.4%

    15

    主题

    1388

    帖子

    4656

    积分

    中级会员

    Rank: 3Rank: 3

    鲜花(1) 鸡蛋(0)
    发表于 2021-2-10 12:32:02 | 显示全部楼层
    难得见到这么多喜欢的歌手一起贺年!
    回复 鲜花(1) 鸡蛋(0)

    使用道具 举报

  • TA的每日心情
    无聊
    昨天 00:12
  • 签到天数: 362 天

    [LV.8]以坛为家I

    升级   72.73%

    5

    主题

    1160

    帖子

    8091

    积分

    高级会员

    Rank: 4

    鲜花(0) 鸡蛋(0)
    发表于 2021-2-10 16:39:59 | 显示全部楼层
    这么多熟悉的民歌,没有找到试听,下载欣赏一下谢谢分享。
    回复 鲜花(0) 鸡蛋(0)

    使用道具 举报

  • TA的每日心情
    无聊
    昨天 21:50
  • 签到天数: 356 天

    [LV.8]以坛为家I

    升级   100%

     成长值: 20

    60

    主题

    2274

    帖子

    1万

    积分

    VIP

    Rank: 5Rank: 5

    发帖高手勋章

    鲜花(0) 鸡蛋(0)
    发表于 2021-2-10 20:39:06 | 显示全部楼层
    也是一张稀有CD,楼主出手不凡。
    回复 鲜花(0) 鸡蛋(0)

    使用道具 举报

  • TA的每日心情
    郁闷
    昨天 17:37
  • 签到天数: 300 天

    [LV.8]以坛为家I

    升级   92.08%

    1

    主题

    1692

    帖子

    6683

    积分

    中级会员

    Rank: 3Rank: 3

    鲜花(0) 鸡蛋(0)
    发表于 2021-2-11 21:21:49 | 显示全部楼层
    通俗歌手翻唱老歌曲,非常喜欢这种类型的作品,值得收藏。
    回复 鲜花(0) 鸡蛋(0)

    使用道具 举报

    您需要登录后才可以回帖 登录 | 立即注册

    本版积分规则

    Archiver|小黑屋|移动版|数字音乐论坛 ( 津ICP备09009336号-1 )

    GMT+8, 2021-4-13 12:54 , Processed in 1.234375 second(s), 64 queries .

    Powered by Discuz! X3.4 Licensed

    © 2008-2020 上网要文明 发言要理性 本站禁灌水

    快速回复 返回顶部 返回列表