开启辅助访问 天气与日历 收藏本站

数字音乐论坛

 找回密码
 立即注册
快捷导航
查看: 118|回复: 7

[音樂舞曲-03-恰恰] [APE/328MB][百度]

[复制链接] TA的其它主题
  • TA的每日心情
    擦汗
    7 天前
  • 签到天数: 27 天

    [LV.4]偶尔看看III

    升级   0%

    109

    主题

    208

    帖子

    2万

    积分

    论坛元老

    Rank: 8Rank: 8

    鲜花(3) 鸡蛋(0)
    发表于 2021-1-12 20:20:59 | 显示全部楼层 |阅读模式
    1.jpg
    2.jpg

    【專輯名稱】音樂舞曲-03-恰恰
    【唱片編號】C-1054
    【發行公司】鶴鳴唱片
    【制作軟體】EAC
    【讀取模式】安全模式,光碟機具備有精確流選項


    專輯收錄了:

    01.男兒漂泊的心情
    02.唱抹煞
    03.歌聲戀情
    04.舞女

    05.媽媽請你也保重
    06.望月想愛人
    07.彼個小姑娘
    08.吞落去
    09.午夜的街頭
    10.多少柔情多少淚

    11.風淒淒意綿綿
    12.梨山癡情花
    13.原諒我吧心上人
    14.又是細雨
    15.心戀
    16.雨的旋律


    3.jpg


    游客,如果您要查看本帖隐藏内容请回复


    提取碼.txt (4 Bytes, 下载次数: 7, 售价: 88 金币)

    评分

    参与人数 1威望 +4 金币 +8 贡献 +4 收起 理由
    WSAN + 4 + 8 + 4

    查看全部评分

    我新发布了帖子《[雷射吉它演奏2 - 典藏特辑][WAV+CUE][404MB/百度]》,快来围观吧!
    回复 鲜花(3) 鸡蛋(0)

    使用道具 举报

  • TA的每日心情
    擦汗
    7 天前
  • 签到天数: 27 天

    [LV.4]偶尔看看III

    升级   0%

    109

    主题

    208

    帖子

    2万

    积分

    论坛元老

    Rank: 8Rank: 8

    鲜花(3) 鸡蛋(0)
     楼主| 发表于 2021-1-12 20:21:19 | 显示全部楼层
    V0.99 prebeta 4 from 23. January 2008
    EAC 抓取日誌檔案從12. 三月 2020, 11:18
    未知歌手 / 浪漫生活大師系列_音樂舞曲3
    使用光碟機  :PIONEER DVD-RW  DVR-116   Adapter: 1  ID: 0
    讀取模式    : :
                   : 是
                   : 是
                   : 否
    讀取錯誤修正:                 : 0
    讀取 Lead-In 和 Lead-Out       : 否
    用靜音填充抓取中丟失偏移的取樣 : 是
    去除首尾靜音區塊               : 否
                                   : 否
                                   : Win NT 及 2000 本地 Win32 介面
    所用輸出模式: : Monkey's Audio Lossless Encoder v3.99 DLL
                   : High Lossless Compression


            |          |          |        |        
        --------------------------------------------
          1 |  0:00.00 |  4:04.62 |      0 |  18361
          2 |  4:04.62 |  3:30.15 |  18362 |  34126
          3 |  7:35.02 |  2:59.03 |  34127 |  47554
          4 | 10:34.05 |  3:24.42 |  47555 |  62896
          5 | 13:58.47 |  2:43.43 |  62897 |  75164
          6 | 16:42.15 |  3:32.70 |  75165 |  91134
          7 | 20:15.10 |  3:28.07 |  91135 | 106741
          8 | 23:43.17 |  3:07.70 | 106742 | 120836
          9 | 26:51.12 |  3:16.30 | 120837 | 135566
         10 | 30:07.42 |  2:54.68 | 135567 | 148684
         11 | 33:02.35 |  3:12.17 | 148685 | 163101
         12 | 36:14.52 |  3:12.53 | 163102 | 177554
         13 | 39:27.30 |  2:46.35 | 177555 | 190039
         14 | 42:13.65 |  3:33.62 | 190040 | 206076
         15 | 45:47.52 |  2:55.35 | 206077 | 219236
         16 | 48:43.12 |  3:03.25 | 219237 | 232986

    範圍狀態及錯誤
    已選擇範圍
         檔案名稱 C:\CDImage.ape
         峰值電平 99.9 %
         範圍質量 99.9 %
         複製 CRC 9BAB776B
         複製完成
    沒有錯誤發生
    狀態報告結尾
    我新发布了帖子《[雷射吉它演奏2 - 典藏特辑][WAV+CUE][404MB/百度]》,快来围观吧!
    回复 鲜花(3) 鸡蛋(0)

    使用道具 举报

  • TA的每日心情

    5 小时前
  • 签到天数: 302 天

    [LV.8]以坛为家I

    升级   53.33%

    1

    主题

    1802

    帖子

    7800

    积分

    高级会员

    Rank: 4

    鲜花(0) 鸡蛋(0)
    发表于 2021-1-13 05:54:56 | 显示全部楼层
    早起听一曲欢快恰恰舞曲,带来一天的好心情,感谢楼主分享!
    回复 鲜花(0) 鸡蛋(0)

    使用道具 举报

  • TA的每日心情
    无聊
    昨天 07:33
  • 签到天数: 165 天

    [LV.7]常住居民III

    升级   64.05%

    1

    主题

    669

    帖子

    1281

    积分

    新手上路

    Rank: 1

    鲜花(0) 鸡蛋(0)
    发表于 2021-1-13 18:37:40 | 显示全部楼层
    谢谢分享音乐舞曲03-恰恰。
    回复 鲜花(0) 鸡蛋(0)

    使用道具 举报

  • TA的每日心情
    无聊
    1 小时前
  • 签到天数: 300 天

    [LV.8]以坛为家I

    升级   1.08%

    1

    主题

    1609

    帖子

    3043

    积分

    中级会员

    Rank: 3Rank: 3

    鲜花(0) 鸡蛋(0)
    发表于 2021-1-13 19:50:37 | 显示全部楼层
    这个舞曲系列非常好听,听过另一个版本。谢谢分享!
    1.jpg

    2.jpg
    回复 鲜花(0) 鸡蛋(0)

    使用道具 举报

  • TA的每日心情

    1 小时前
  • 签到天数: 44 天

    [LV.5]常住居民I

    升级   7.8%

    1

    主题

    68

    帖子

    156

    积分

    新手上路

    Rank: 1

    鲜花(0) 鸡蛋(0)
    发表于 2021-1-14 18:39:14 | 显示全部楼层
    感谢楼主带来非常好听的音乐舞曲系列专辑3分享
    回复 鲜花(0) 鸡蛋(0)

    使用道具 举报

  • TA的每日心情
    擦汗
    昨天 12:14
  • 签到天数: 183 天

    [LV.7]常住居民III

    升级   56.4%

    57

    主题

    1205

    帖子

    9346

    积分

    金牌会员

    Rank: 6Rank: 6

    鲜花(0) 鸡蛋(0)
    发表于 7 天前 | 显示全部楼层
    很悦耳的试听舞女 一定全收下 谢谢乐友小米米.
    回复 鲜花(0) 鸡蛋(0)

    使用道具 举报

  • TA的每日心情
    郁闷
    1 小时前
  • 签到天数: 266 天

    [LV.8]以坛为家I

    升级   74.55%

    15

    主题

    2383

    帖子

    5982

    积分

    中级会员

    Rank: 3Rank: 3

    鲜花(0) 鸡蛋(0)
    发表于 6 天前 | 显示全部楼层
    值得收藏的舞曲音乐系列,谢谢分享
    回复 鲜花(0) 鸡蛋(0)

    使用道具 举报

    您需要登录后才可以回帖 登录 | 立即注册

    本版积分规则

    Archiver|手机版|小黑屋|数字音乐论坛 ( 津ICP备09009336号-1 )

    GMT+8, 2021-1-22 10:25 , Processed in 1.218750 second(s), 57 queries .

    Powered by Discuz! X3.4 Licensed

    © 2008-2020 上网要文明 发言要理性 本站禁灌水

    快速回复 返回顶部 返回列表