开启辅助访问 收藏本站

数字音乐论坛

 找回密码
 立即注册
快捷导航
查看: 249|回复: 13

[群星《校园怀旧金曲-潮流篇》][2001年][WAV+CUE][百度]

[复制链接] TA的其它主题
  • TA的每日心情

    昨天 11:52
  • 签到天数: 179 天

    [LV.7]常住居民III

    升级   100%

    94

    主题

    1392

    帖子

    1万

    积分

    版主

    Rank: 7Rank: 7Rank: 7

    积分
    13308
    威望
    1342
    金币
    8823
    贡献
    404

    斑竹专用勋章

    发表于 2020-9-14 15:46:01 | 显示全部楼层 |阅读模式
    本帖最后由 忘不了老歌 于 2020-9-14 16:08 编辑





    专辑名称:校园名谣-潮流篇
    版权提供:环球国际音乐股份有限公司
    出版发行:陕西音像出版社
    发行时间:2001年
    专辑编码:ISRC CN-H01-01-455-00/A.J6
    曲 目 数:17
    资源格式:WAV+CUE



    01 校园冬季 …………………………… 李晓东
    02 老屋 ………………………………… 李晓东
    03 白桦林 ……………………………… 朴 树
    04 我们相识 ……………………… 冯蓝 /李榕
    05 b 小调雨后 ………………………… 叶 蓓
    06 同桌的你 …………………………… 老 狼
    07 关于理想的课堂作文 ……………… 李晓东
    08 遥望 ………………………………… 小 柯
    09 女孩与四重奏 ……………………… 丁 薇
    10 睡在我上铺的兄弟 ………………… 老 狼
    11 故事里的树 ………………………… 冯 蓝
    12 上学,上班 ………………… 李榕 /黑鸭子
    13 我想我是海 ………………………… 黄 磊
    14 流浪歌手的情人 …………………… 老 狼
    15 最后 ………………………………… 谢 彤
    16 窗外 ………………………………… 李 琛
    17 流浪者的独白 ……………………… 叶佳修



    试听曲:《睡在我上铺的兄弟》

    游客,如果您要查看本帖隐藏内容请回复

    ◇个人藏品,仅供试听交流,切勿作商业用途!◇




    评分

    参与人数 1威望 +8 金币 +16 贡献 +8 收起 理由
    WSAN + 8 + 16 + 8 很给力!

    查看全部评分

    回复

    使用道具 举报

  • TA的每日心情

    昨天 11:52
  • 签到天数: 179 天

    [LV.7]常住居民III

    升级   100%

    94

    主题

    1392

    帖子

    1万

    积分

    版主

    Rank: 7Rank: 7Rank: 7

    积分
    13308
    威望
    1342
    金币
    8823
    贡献
    404

    斑竹专用勋章

     楼主| 发表于 2020-9-14 15:47:33 | 显示全部楼层

                                   
    登录/注册后可看大图



                                   
    登录/注册后可看大图


    Exact Audio Copy V1.2 from 12. August 2016

    EAC 抓取日志文件从29. 十二月 2018, 16:09

    群星 / 校园名谣 - 潮流篇

    使用驱动器  :PLDS    DVD-RW DS8A8SH   Adapter: 1  ID: 0

    读取模式      : 可靠Secure
    使用精确流     : 是
    清空音频缓存    : 是
    使用 C2 指示器 : 否

    组合读写偏移校正:             : 0
    读取 Lead-In 和 Lead-Out : 否
    用静音填充抓取中丢失偏移的采样       : 是
    去除首尾静音块               : 否
    在CRC 计算中使用了空样本       : 是
    已用接口                  : Win NT 及 2000 本地 Win32 接口

    所用输出模式: : 内部 WAV 函数
    样本格式    : 44.100 Hz; 16 Bit; 立体声


    已抓取 CD 的 TOC

         音轨 |    起始    |    长度    |  起始扇区  |  结束扇区  
        --------------------------------------------
          1 |  0:00.00 |  3:31.63 |      0 |  15887
          2 |  3:31.63 |  4:51.56 |  15888 |  37768
          3 |  8:23.44 |  3:47.25 |  37769 |  54818
          4 | 12:10.69 |  4:07.44 |  54819 |  73387
          5 | 16:18.38 |  2:52.17 |  73388 |  86304
          6 | 19:10.55 |  3:25.24 |  86305 | 101703
          7 | 22:36.04 |  4:12.06 | 101704 | 120609
          8 | 26:48.10 |  3:52.10 | 120610 | 138019
          9 | 30:40.20 |  4:20.48 | 138020 | 157567
         10 | 35:00.68 |  3:35.46 | 157568 | 173738
         11 | 38:36.39 |  3:01.51 | 173739 | 187364
         12 | 41:38.15 |  4:37.26 | 187365 | 208165
         13 | 46:15.41 |  4:49.01 | 208166 | 229841
         14 | 51:04.42 |  5:14.49 | 229842 | 253440
         15 | 56:19.16 |  4:25.45 | 253441 | 273360
         16 | 60:44.61 |  4:18.41 | 273361 | 292751
         17 | 65:03.27 |  5:11.67 | 292752 | 316143


    范围状态及错误

    已选择范围

         文件名 D:\APE\CD抓轨\群星 - 校园名谣 - 潮流篇.wav

         峰值电平 100.0 %
         抓取速度 1.9 X
         范围质量 99.9 %
         复制 CRC 4F8388DF
         复制成功

    没有错误发生

    状态报告结尾


    [CTDB TOCID: ILqw6.N9Aurq3uBlU1oOA4Svowc-] found
    Submit result: insufficient quality
    Track | CTDB Status
      1   | (1/1) Accurately ripped
      2   | (0/1) No match
      3   | (1/1) Accurately ripped
      4   | (1/1) Accurately ripped
      5   | (1/1) Accurately ripped
      6   | (1/1) Accurately ripped
      7   | (1/1) Accurately ripped
      8   | (0/1) No match
      9   | (1/1) Accurately ripped
    10   | (1/1) Accurately ripped
    11   | (1/1) Accurately ripped
    12   | (1/1) Accurately ripped
    13   | (1/1) Accurately ripped
    14   | (1/1) Accurately ripped
    15   | (1/1) Accurately ripped
    16   | (0/1) No match
    17   | (1/1) Accurately ripped
    回复

    使用道具 举报

  • TA的每日心情
    郁闷
    半小时前
  • 签到天数: 174 天

    [LV.7]常住居民III

    升级   0%

    59

    主题

    1974

    帖子

    1万

    积分

    论坛元老

    Rank: 8Rank: 8

    积分
    11817
    威望
    2044
    金币
    5169
    贡献
    581

    发帖高手勋章

    发表于 2020-9-14 20:32:06 | 显示全部楼层
    谢谢忘版分享大陆校园歌曲,很喜欢。
    回复

    使用道具 举报

  • TA的每日心情
    擦汗
    昨天 07:19
  • 签到天数: 168 天

    [LV.7]常住居民III

    升级   0.75%

    7

    主题

    835

    帖子

    3030

    积分

    中级会员

    Rank: 3Rank: 3

    积分
    3030
    威望
    281
    金币
    1633
    贡献
    0
    发表于 2020-9-14 20:50:03 | 显示全部楼层
    九十年代初的校园原创,给当时的大陆歌坛带来了一股清流。
    回复

    使用道具 举报

  • TA的每日心情
    开心
    前天 21:20
  • 签到天数: 144 天

    [LV.7]常住居民III

    升级   6.38%

    9

    主题

    1210

    帖子

    3255

    积分

    中级会员

    Rank: 3Rank: 3

    积分
    3255
    威望
    796
    金币
    453
    贡献
    0
    发表于 2020-9-14 22:25:43 | 显示全部楼层
    好长时间没有听到老歌的分享了
    回复

    使用道具 举报

  • TA的每日心情

    昨天 11:52
  • 签到天数: 179 天

    [LV.7]常住居民III

    升级   100%

    94

    主题

    1392

    帖子

    1万

    积分

    版主

    Rank: 7Rank: 7Rank: 7

    积分
    13308
    威望
    1342
    金币
    8823
    贡献
    404

    斑竹专用勋章

     楼主| 发表于 2020-9-14 22:39:18 | 显示全部楼层
    凌波微步 发表于 2020-9-14 22:25
    好长时间没有听到老歌的分享了

    与 凌波微步 友握手!前段时间登录论坛奇慢,最近好了点。
    回复

    使用道具 举报

  • TA的每日心情
    擦汗
    8 小时前
  • 签到天数: 179 天

    [LV.7]常住居民III

    升级   70.93%

    4

    主题

    1990

    帖子

    5837

    积分

    中级会员

    Rank: 3Rank: 3

    积分
    5837
    威望
    1164
    金币
    1518
    贡献
    1
    发表于 2020-9-14 22:51:27 | 显示全部楼层
    国内校园金曲较为有代表性的作品,满满都是感动啊
    回复

    使用道具 举报

  • TA的每日心情

    昨天 10:35
  • 签到天数: 184 天

    [LV.7]常住居民III

    升级   0%

    37

    主题

    4689

    帖子

    1万

    积分

    论坛元老

    Rank: 8Rank: 8

    积分
    12940
    威望
    3515
    金币
    1113
    贡献
    108
    发表于 2020-9-14 22:53:43 | 显示全部楼层
    这个应该称作是各个年代的民谣歌曲大杂烩,应该不是原装正版,但选的歌曲都不错。
    回复

    使用道具 举报

  • TA的每日心情

    2 小时前
  • 签到天数: 182 天

    [LV.7]常住居民III

    升级   23.5%

    1

    主题

    1100

    帖子

    2235

    积分

    注册会员

    Rank: 2

    积分
    2235
    威望
    121
    金币
    893
    贡献
    0
    发表于 2020-9-15 00:06:06 | 显示全部楼层
    没见过这张民谣碟,歌曲很经典,支持了,谢谢。。。
    回复

    使用道具 举报

  • TA的每日心情
    奋斗
    昨天 14:27
  • 签到天数: 93 天

    [LV.6]常住居民II

    升级   14.4%

    12

    主题

    1016

    帖子

    2144

    积分

    注册会员

    Rank: 2

    积分
    2144
    威望
    492
    金币
    141
    贡献
    3
    发表于 6 天前 手机频道 | 显示全部楼层
    这些校园民谣,我一直都是很喜欢的。
    回复

    使用道具 举报

    您需要登录后才可以回帖 登录 | 立即注册

    本版积分规则

    本站2008-12-18至今已运行4298天。欢迎光临!

    Archiver|手机版|小黑屋|数字音乐论坛 ( 津ICP备09009336号-1 )

    GMT+8, 2020-9-24 08:32 , Processed in 0.437500 second(s), 38 queries .

    Powered by Discuz! X3.4

    © 2008-2020 上网要文明 发言要理性 本站禁灌水

    快速回复 返回顶部 返回列表