开启辅助访问 收藏本站

数字音乐论坛

 找回密码
 立即注册
快捷导航
查看: 306|回复: 11

[原创] [奚秀兰《美丽的归宿》(风行版)[WAV][475MB/百度]

[复制链接] TA的其它主题
  • TA的每日心情
    擦汗
    7 天前
  • 签到天数: 42 天

    [LV.5]常住居民I

    升级   44.85%

    7

    主题

    152

    帖子

    897

    积分

    新手上路

    Rank: 1

    积分
    897
    威望
    132
    金币
    451
    贡献
    30
    发表于 2020-7-17 20:26:47 | 显示全部楼层 |阅读模式
    [audio]
    [/audio]


    唱片名称:美丽的归宿
    歌者姓名:奚秀兰
    发行公司:风行唱片有限公司出品
    出版编码:FHC-837
    发行年份:1985
    唱片曲目:
    A面
    1.美丽的归宿
    2.又见柳叶青
    3.访英台
    4.如果
    5.熊猫眯眯
    6.雪山盟
    7.卖花歌
    B面
    1.八仙过海
    2.原乡情浓
    3.送你一把泥土
    4.默默祝福你
    5.小村之恋
    6.含苞欲放的花
    7.甜蜜蜜
    特此声明:下载收听请尊重群里一切规定。
    游客,如果您要查看本帖隐藏内容请回复


    微信图片_20200717201353.jpg
    微信图片_20200717201400.jpg

    密码.txt

    4 Bytes, 下载次数: 19

    售价: 10 金币  [记录]

    评分

    参与人数 1威望 +8 金币 +16 贡献 +8 收起 理由
    WSAN + 8 + 16 + 8 很给力!

    查看全部评分

    回复

    使用道具 举报

  • TA的每日心情

    昨天 11:27
  • 签到天数: 77 天

    [LV.6]常住居民II

    升级   76.85%

    22

    主题

    675

    帖子

    6074

    积分

    中级会员

    Rank: 3Rank: 3

    积分
    6074
    威望
    556
    金币
    3990
    贡献
    282

    发帖高手勋章

    发表于 2020-7-17 20:40:23 | 显示全部楼层
    音质不错,赞一个。很好听的八仙过海主题歌。
    回复

    使用道具 举报

  • TA的每日心情
    奋斗
    昨天 10:23
  • 签到天数: 127 天

    [LV.7]常住居民III

    升级   0%

    59

    主题

    1905

    帖子

    1万

    积分

    论坛元老

    Rank: 8Rank: 8

    积分
    11499
    威望
    2022
    金币
    4964
    贡献
    581

    发帖高手勋章

    发表于 2020-7-17 20:48:45 | 显示全部楼层
    本帖最后由 ZHZ 于 2020-7-17 20:49 编辑

    音质比我收藏的版本好,谢谢楼主制作分享,收藏了。
    回复

    使用道具 举报

  • TA的每日心情

    昨天 14:07
  • 签到天数: 138 天

    [LV.7]常住居民III

    升级   23.7%

    2

    主题

    1420

    帖子

    3948

    积分

    中级会员

    Rank: 3Rank: 3

    积分
    3948
    威望
    653
    金币
    1221
    贡献
    1
    发表于 2020-7-17 20:49:11 | 显示全部楼层
    拥有过大陆引进版的,封皮和曲目完全一样。并且歌曲都很好听。
    回复

    使用道具 举报

  • TA的每日心情
    难过
    昨天 12:06
  • 签到天数: 132 天

    [LV.7]常住居民III

    升级   29.9%

    6

    主题

    902

    帖子

    2299

    积分

    注册会员

    Rank: 2

    积分
    2299
    威望
    376
    金币
    645
    贡献
    0
    发表于 2020-7-18 00:05:08 | 显示全部楼层
    这版的音质真的很好,非常感谢楼主分享,升级以前的收藏了
    回复

    使用道具 举报

  • TA的每日心情
    擦汗
    6 小时前
  • 签到天数: 125 天

    [LV.7]常住居民III

    升级   26.1%

    1

    主题

    936

    帖子

    2261

    积分

    注册会员

    Rank: 2

    积分
    2261
    威望
    105
    金币
    1115
    贡献
    0
    发表于 2020-7-18 07:05:50 | 显示全部楼层
    风行版的奚秀兰盒带最爱!八仙过海的几首歌好听!感谢分享!制作辛苦!
    回复

    使用道具 举报

  • TA的每日心情
    开心
    昨天 08:17
  • 签到天数: 121 天

    [LV.7]常住居民III

    升级   86.2%

    1

    主题

    1047

    帖子

    1724

    积分

    新手上路

    Rank: 1

    积分
    1724
    威望
    299
    金币
    79
    贡献
    0
    发表于 2020-7-18 08:27:08 | 显示全部楼层
    奚秀兰的演唱非常具有鲜明的个人特色!谢谢分享!
    回复

    使用道具 举报

  • TA的每日心情

    4 小时前
  • 签到天数: 127 天

    [LV.7]常住居民III

    升级   36.3%

    5

    主题

    1276

    帖子

    4452

    积分

    中级会员

    Rank: 3Rank: 3

    积分
    4452
    威望
    701
    金币
    1770
    贡献
    4
    发表于 2020-7-18 08:49:13 | 显示全部楼层
    八仙过海,很好听。这是1985年出的磁带,算是老磁带了。奚秀兰也出了很多专辑,她的声线可以。
    回复

    使用道具 举报

  • TA的每日心情
    开心
    3 天前
  • 签到天数: 114 天

    [LV.6]常住居民II

    升级   8.9%

    6

    主题

    525

    帖子

    3356

    积分

    中级会员

    Rank: 3Rank: 3

    积分
    3356
    威望
    406
    金币
    2009
    贡献
    10
    发表于 2020-7-18 09:42:47 | 显示全部楼层
    很经典的一个资料,尤其是里面的八仙过海歌曲,非常流行。
    回复

    使用道具 举报

  • TA的每日心情
    擦汗
    4 小时前
  • 签到天数: 132 天

    [LV.7]常住居民III

    升级   18.03%

    3

    主题

    1668

    帖子

    3721

    积分

    中级会员

    Rank: 3Rank: 3

    积分
    3721
    威望
    959
    金币
    125
    贡献
    10
    发表于 2020-7-18 10:16:49 | 显示全部楼层
    本帖最后由 retuiiipp 于 2020-7-18 11:00 编辑

    风行版的奚秀兰制作精美,试听的音质好,谢谢分享!!!

    修正一下曲目顺序错误:

    A面
    1.美丽的归宿
    2.又见柳叶青
    3.熊猫眯眯
    4.含苞欲放的花
    5.小村之恋
    6.雪山盟
    7.卖花歌
    B面
    1.八仙过海
    2.访英台
    3.原乡情浓
    4.送你一把泥土
    5.如果
    6.默默祝福你
    7.甜蜜蜜

    顺便贴个cue参考:

    REM DATE 1985
    PERFORMER "奚秀兰"
    TITLE "美丽的归宿"
    FILE "美丽的归宿A面.wav" WAVE
      TRACK 01 AUDIO
        TITLE "美丽的归宿"
        INDEX 01 00:00:00
      TRACK 02 AUDIO
        TITLE "又见柳叶青"
        INDEX 01 03:00:00
      TRACK 03 AUDIO
        TITLE "熊猫眯眯"
        INDEX 01 06:19:00
      TRACK 04 AUDIO
        TITLE "含苞欲放的花"
        INDEX 01 09:34:00
      TRACK 05 AUDIO
        TITLE "小村之恋"
        INDEX 01 12:16:00
      TRACK 06 AUDIO
        TITLE "雪山盟"
        INDEX 01 15:56:00
      TRACK 07 AUDIO
        TITLE "卖花歌"
        INDEX 01 20:45:00
    FILE "美丽的归宿B面.wav" WAVE
      TRACK 08 AUDIO
        TITLE "八仙过海"
        INDEX 01 00:00:00
      TRACK 09 AUDIO
        TITLE "访英台"
        INDEX 01 03:40:00
      TRACK 10 AUDIO
        TITLE "原乡情浓"
        INDEX 01 06:51:00
      TRACK 11 AUDIO
        TITLE "送你一把泥土"
        INDEX 01 10:04:00
      TRACK 12 AUDIO
        TITLE "如果"
        INDEX 01 13:52:00
      TRACK 13 AUDIO
        TITLE "默默祝福你"
        INDEX 01 17:25:00
      TRACK 14 AUDIO
        TITLE "甜蜜蜜"
        INDEX 01 20:44:00



    回复

    使用道具 举报

    您需要登录后才可以回帖 登录 | 立即注册

    本版积分规则

    Archiver|手机版|小黑屋|数字音乐论坛 ( 津ICP备09009336号-1 )

    GMT+8, 2020-8-8 13:36 , Processed in 0.390625 second(s), 42 queries .

    Powered by Discuz! X3.4 Licensed

    © 2008-2020 上网要文明 发言要理性 本站禁灌水

    快速回复 返回顶部 返回列表