开启辅助访问 收藏本站

数字音乐论坛

 找回密码
 立即注册
快捷导航
查看: 221|回复: 7

[原创][最新影视歌曲荟集]TP-APE242M

[复制链接] TA的其它主题
  • TA的每日心情
    开心
    昨天 06:55
  • 签到天数: 66 天

    [LV.6]常住居民II

    升级   52.65%

    14

    主题

    201

    帖子

    1053

    积分

    新手上路

    Rank: 1

    积分
    1053
    威望
    276
    金币
    259
    贡献
    41
    发表于 2020-6-24 21:49:26 | 显示全部楼层 |阅读模式
    本帖最后由 oldfailer 于 2020-6-24 22:03 编辑

    IMG_20200624_112932.jpg IMG_20200624_113057.jpg
    A1济公活佛(独唱)
    A2济公活佛(童声合唱)
    A3心声
    A4望星空十五的月亮
    A5小草
    B6四季歌
    B1青春的舞步
    B2木棉袈裟
    B3来吧!朋友
    B4我多想
    B5一样爱你
    B6难忘的一刹
    B7DISCO摇摇
    [audio]
    [/audio]
    游客,如果您要查看本帖隐藏内容请回复

    提取码.txt (4 Bytes, 下载次数: 15, 售价: 30 金币)

    评分

    参与人数 1金币 +16 收起 理由
    WSAN + 16

    查看全部评分

    回复

    使用道具 举报

  • TA的每日心情
    慵懒
    7 小时前
  • 签到天数: 116 天

    [LV.6]常住居民II

    升级   85.73%

    1

    主题

    1190

    帖子

    6429

    积分

    中级会员

    Rank: 3Rank: 3

    积分
    6429
    威望
    935
    金币
    3369
    贡献
    0
    发表于 2020-6-24 22:19:09 | 显示全部楼层
    坐沙发欣赏,谢谢楼主分享!
    回复

    使用道具 举报

  • TA的每日心情
    郁闷
    6 小时前
  • 签到天数: 107 天

    [LV.6]常住居民II

    升级   93.2%

    2

    主题

    1240

    帖子

    2932

    积分

    注册会员

    Rank: 2

    积分
    2932
    威望
    749
    金币
    194
    贡献
    0
    发表于 2020-6-25 09:15:21 | 显示全部楼层
    看目录歌曲都很好听,不知是不是原唱,没标明演唱者。
    回复

    使用道具 举报

  • TA的每日心情
    擦汗
    4 小时前
  • 签到天数: 108 天

    [LV.6]常住居民II

    升级   16.13%

    3

    主题

    1630

    帖子

    3645

    积分

    中级会员

    Rank: 3Rank: 3

    积分
    3645
    威望
    944
    金币
    117
    贡献
    10
    发表于 2020-6-25 09:46:16 | 显示全部楼层
    本帖最后由 retuiiipp 于 2020-6-25 10:23 编辑

    磁带芯还完整,歌曲经典,谢谢分享!!!
    做了个cue,请参考:
    TITLE "最新影视歌曲荟集"
    FILE "最新影视歌曲荟集A.ape" WAVE
      TRACK 01 AUDIO
        TITLE "济公活佛(独唱)"
        INDEX 01 00:00:00
    TRACK 02 AUDIO
        TITLE "济公活佛(童声合唱)"
        INDEX 01 02:32:00
    TRACK 03 AUDIO
        TITLE "心声"
        INDEX 01 05:09:00
    TRACK 04 AUDIO
        TITLE "望星空十五的月亮"
        INDEX 01 09:30:00
    TRACK 05 AUDIO
        TITLE "小草"
        INDEX 01 15:35:00
    TRACK 06 AUDIO
        TITLE "四季歌"
        INDEX 01 18:39:00
    FILE "最新影视歌曲荟集B.ape" WAVE
      TRACK 07 AUDIO
        TITLE "青春的舞步"
        INDEX 01 00:00:00
    TRACK 08 AUDIO
        TITLE "木棉袈裟"
        INDEX 01 03:19:00
    TRACK 09 AUDIO
        TITLE "来吧!朋友"
        INDEX 01 05:55:00
    TRACK 10 AUDIO
        TITLE "我多想"
        INDEX 01 07:35:00
    TRACK 11 AUDIO
        TITLE "一样爱你"
        INDEX 01 10:36:00
    TRACK 12 AUDIO
        TITLE "难忘的一刹"
        INDEX 01 13:55:00
    TRACK 13 AUDIO
        TITLE "DISCO摇摇"
        INDEX 01 17:13:00



    回复

    使用道具 举报

  • TA的每日心情
    开心
    6 小时前
  • 签到天数: 42 天

    [LV.5]常住居民I

    升级   61.5%

    1

    主题

    101

    帖子

    1230

    积分

    新手上路

    Rank: 1

    积分
    1230
    威望
    57
    金币
    1015
    贡献
    0
    发表于 2020-6-26 11:30:31 | 显示全部楼层
    倾听曾经的经典流行歌曲,勾起那个年代的美好回忆。
    回复

    使用道具 举报

  • TA的每日心情

    4 小时前
  • 签到天数: 105 天

    [LV.6]常住居民II

    升级   26.18%

    5

    主题

    1239

    帖子

    4047

    积分

    中级会员

    Rank: 3Rank: 3

    积分
    4047
    威望
    687
    金币
    1430
    贡献
    4
    发表于 2020-6-27 07:58:55 | 显示全部楼层
    retuiiipp 发表于 2020-6-25 09:46
    磁带芯还完整,歌曲经典,谢谢分享!!!
    做了个cue,请参考:
    TITLE "最新影视歌曲荟集"

    谢谢retuiiipp,有了cue文件,真是太方便了!
    回复

    使用道具 举报

  • TA的每日心情
    难过
    4 小时前
  • 签到天数: 78 天

    [LV.6]常住居民II

    升级   6.83%

    1

    主题

    997

    帖子

    3273

    积分

    中级会员

    Rank: 3Rank: 3

    积分
    3273
    威望
    414
    金币
    1445
    贡献
    3
    发表于 2020-6-28 09:22:52 | 显示全部楼层
    小时候经常听过的歌,满满的回忆啊~
    回复

    使用道具 举报

  • TA的每日心情
    郁闷
    3 小时前
  • 签到天数: 33 天

    [LV.5]常住居民I

    升级   37.45%

    2

    主题

    199

    帖子

    749

    积分

    新手上路

    Rank: 1

    积分
    749
    威望
    159
    金币
    232
    贡献
    0
    发表于 2020-7-7 23:06:24 | 显示全部楼层
    感谢上传者的辛苦上传及无私分享,这盘影视歌曲磁带还是第一次看到,所收录的歌曲都是当时最热播的影视剧歌曲,像济公,木棉袈裟等。
    回复

    使用道具 举报

    您需要登录后才可以回帖 登录 | 立即注册

    本版积分规则

    Title - Artist
    0:00

      Archiver|手机版|小黑屋|数字音乐论坛 ( 津ICP备09009336号-1 )

      GMT+8, 2020-7-15 13:15 , Processed in 0.484375 second(s), 38 queries .

      Powered by Discuz! X3.4 Licensed

      © 2008-2020 上网要文明 发言要理性 本站禁灌水

      快速回复 返回顶部 返回列表