开启辅助访问 天气与日历 收藏本站

数字音乐论坛

 找回密码
 立即注册
查看: 437|回复: 9

[原创][甘雅丹--老祖屋][ WAV+CUE /483MB/百度]

[复制链接] TA的其它主题
  • TA的每日心情
    难过
    前天 19:11
  • 签到天数: 149 天

    [LV.7]常住居民III

    升级   0%

    86

    主题

    2066

    帖子

    1万

    积分

    论坛元老

    Rank: 8Rank: 8

    发帖高手勋章

    鲜花(0) 鸡蛋(0)
    发表于 2020-3-14 21:11:27 | 显示全部楼层 |阅读模式
    本帖最后由 痴迷往事 于 2020-3-14 21:59 编辑

    


    封面.jpg

    踏入2004年,广州“龙典唱片”率先推出了能拉会唱的新人甘雅丹的演唱专辑《老祖屋》,唱响了广东歌坛“新年第一声”。
    甘雅丹原是星海音乐学院的高材生,被广东著名音乐制作人方奕发掘。2003年9月,方奕与著名国乐演奏家方锦龙组成“双方出击”音乐组合后,邀请她在其制作的《双方出击》演唱专辑中领奏、唱《掀起你的盖头来》,随后在广州、香港和日本等地巡回演出,备受关注。出生于湖南益阳的甘雅丹,7岁开始学习二胡,1998年考入星海音乐学院民乐系。毕业后,甘雅丹任职于广东歌舞剧院民族乐团,积累了一定的舞台表演经验。
    专辑中,由方奕作曲、战士歌舞团的苏虎作词的主打歌《老祖屋》,是一首音调高亢、穿透力极强的歌曲,曾获得北京举行的海峡两岸征歌比赛金奖。



    图片来自网络

    曲目:

    01.老祖屋 
    02.天堂 
    03.蓝色的故乡
    04.可爱的一朵玫瑰花 
    05.雪域之光 
    06.家乡 
    07.克鲁伦河 
    08.美丽的草原我的家
    09.走进西藏 
    10.掀起你的盖头来 
    11.神奇的九寨 
    12.蒙古人
    13.青藏高原[器乐版] 

    [url=链接:https://pan.baidu.com/s/1EkI5hXNV7K6dmBL4vu4E6g  提取码:hv48]链接:



    游客,如果您要查看本帖隐藏内容请回复














    评分

    参与人数 2威望 +13 金币 +26 贡献 +13 收起 理由
    温古知新 + 5 + 10 + 5
    痴迷往事 + 8 + 16 + 8 赞一个!

    查看全部评分

    回复 鲜花(0) 鸡蛋(0)

    使用道具 举报

  • TA的每日心情
    难过
    前天 19:11
  • 签到天数: 149 天

    [LV.7]常住居民III

    升级   0%

    86

    主题

    2066

    帖子

    1万

    积分

    论坛元老

    Rank: 8Rank: 8

    发帖高手勋章

    鲜花(0) 鸡蛋(0)
     楼主| 发表于 2020-3-14 21:12:31 | 显示全部楼层
    Exact Audio Copy V1.2 from 12. August 2016

    EAC 抓取日志文件从14. 三月 2020, 12:16

    未知艺术家 / 未知标题

    使用驱动器  :TSSTcorpDVD+-RW SU-208FB   Adapter: 1  ID: 0

    读取模式      : 可靠Secure
    使用精确流     : 是
    清空音频缓存    : 是
    使用 C2 指示器 : 否

    读取偏移校正:               : 0
    读取 Lead-In 和 Lead-Out : 否
    用静音填充抓取中丢失偏移的采样       : 是
    去除首尾静音块               : 否
    在CRC 计算中使用了空样本       : 是
    已用接口                  : Win NT 及 2000 本地 Win32 接口

    所用输出模式: : 内部 WAV 函数
    样本格式    : 44.100 Hz; 16 Bit; 立体声


    已抓取 CD 的 TOC

         音轨 |    起始    |    长度    |  起始扇区  |  结束扇区  
        --------------------------------------------
          1 |  0:00.00 |  4:19.50 |      0 |  19474
          2 |  4:19.50 |  4:59.27 |  19475 |  41926
          3 |  9:19.02 |  3:35.02 |  41927 |  58053
          4 | 12:54.04 |  3:00.41 |  58054 |  71594
          5 | 15:54.45 |  4:26.42 |  71595 |  91586
          6 | 20:21.12 |  4:45.70 |  91587 | 113031
          7 | 25:07.07 |  3:18.64 | 113032 | 127945
          8 | 28:25.71 |  2:57.20 | 127946 | 141240
          9 | 31:23.16 |  4:02.13 | 141241 | 159403
         10 | 35:25.29 |  3:10.54 | 159404 | 173707
         11 | 38:36.08 |  4:12.56 | 173708 | 192663
         12 | 42:48.64 |  3:20.29 | 192664 | 207692
         13 | 46:09.18 |  4:26.72 | 207693 | 227714


    范围状态及错误

    已选择范围

         文件名 D:\工具\甘雅\未知艺术家 - 未知标题.wav

         峰值电平 94.4 %
         抓取速度 4.3 X
         范围质量 100.0 %
         复制 CRC 4BEBFE11
         复制成功

    没有错误发生

    状态报告结尾

    ------------------------------------------------------------

    回复 鲜花(0) 鸡蛋(0)

    使用道具 举报

  • TA的每日心情
    难过
    2020-9-19 09:18
  • 签到天数: 14 天

    [LV.3]偶尔看看II

    升级   100%

    160

    主题

    613

    帖子

    2万

    积分

    超级版主

    Rank: 8Rank: 8

    斑竹专用勋章

    鲜花(0) 鸡蛋(0)
    发表于 2020-3-14 22:07:42 | 显示全部楼层
    不错的专辑!只是发帖注意下标题规范哈,歌者专辑名一个括号,接着文件格式以及文件大小一个括号,并插上间隔符。
    回复 鲜花(0) 鸡蛋(0)

    使用道具 举报

  • TA的每日心情
    开心
    7 小时前
  • 签到天数: 232 天

    [LV.7]常住居民III

    升级   89.47%

    21

    主题

    1385

    帖子

    8342

    积分

    高级会员

    Rank: 4

    鲜花(0) 鸡蛋(0)
    发表于 2020-3-15 16:46:21 | 显示全部楼层
    听听这位新晋歌手的演唱!
    有人说到再没有比歌曲更忠诚的事物了,人会跑远,记忆会消逝,多年以后,这些歌仍会带着我们的故事,在我们眼中闪现光芒。
    回复 鲜花(0) 鸡蛋(0)

    使用道具 举报

  • TA的每日心情
    难过
    6 天前
  • 签到天数: 197 天

    [LV.7]常住居民III

    升级   50.78%

    7

    主题

    868

    帖子

    5031

    积分

    中级会员

    Rank: 3Rank: 3

    鲜花(0) 鸡蛋(0)
    发表于 2020-3-15 23:35:48 | 显示全部楼层
    看看专辑呢,是不是会给人带来惊喜。
    回复 鲜花(0) 鸡蛋(0)

    使用道具 举报

  • TA的每日心情

    2020-8-22 10:46
  • 签到天数: 4 天

    [LV.2]偶尔看看I

    升级   28.85%

    4

    主题

    127

    帖子

    577

    积分

    新手上路

    Rank: 1

    鲜花(0) 鸡蛋(0)
    发表于 2020-3-27 22:55:41 | 显示全部楼层
    挡不住的声音诱惑,谢谢分享。
    回复 鲜花(0) 鸡蛋(0)

    使用道具 举报

  • TA的每日心情
    郁闷
    昨天 16:07
  • 签到天数: 241 天

    [LV.8]以坛为家I

    升级   0%

    38

    主题

    4820

    帖子

    1万

    积分

    论坛元老

    Rank: 8Rank: 8

    鲜花(0) 鸡蛋(0)
    发表于 2020-4-29 17:11:11 | 显示全部楼层
    这位歌手好像特别喜欢演唱藏歌,可惜比起藏族歌手感觉还是少了一份韵味
    回复 鲜花(0) 鸡蛋(0)

    使用道具 举报

  • TA的每日心情
    慵懒
    7 小时前
  • 签到天数: 238 天

    [LV.7]常住居民III

    升级   84.85%

    8

    主题

    2167

    帖子

    6394

    积分

    中级会员

    Rank: 3Rank: 3

    鲜花(0) 鸡蛋(0)
    发表于 2020-4-30 23:18:16 | 显示全部楼层
    甘雅丹演绎了不少经典藏歌,嗓音很干净。录音效果不错
    回复 鲜花(0) 鸡蛋(0)

    使用道具 举报

  • TA的每日心情

    2020-11-10 12:20
  • 签到天数: 4 天

    [LV.2]偶尔看看I

    升级   6.95%

    1

    主题

    18

    帖子

    139

    积分

    新手上路

    Rank: 1

    鲜花(0) 鸡蛋(0)
    发表于 2020-9-23 01:31:05 | 显示全部楼层
    今晚听了他的音乐,声音很动人,个人很是喜欢
    回复 鲜花(0) 鸡蛋(0)

    使用道具 举报

  • TA的每日心情
    郁闷
    3 天前
  • 签到天数: 36 天

    [LV.5]常住居民I

    升级   20.4%

    2

    主题

    157

    帖子

    408

    积分

    新手上路

    Rank: 1

    鲜花(0) 鸡蛋(0)
    发表于 5 天前 | 显示全部楼层
    喜欢他的声音!谢谢楼主分享!!!
    回复 鲜花(0) 鸡蛋(0)

    使用道具 举报

    您需要登录后才可以回帖 登录 | 立即注册

    本版积分规则

    Archiver|手机版|小黑屋|数字音乐论坛 ( 津ICP备09009336号-1 )

    GMT+8, 2020-11-27 07:05 , Processed in 0.359375 second(s), 61 queries .

    Powered by Discuz! X3.4 Licensed

    Copyright © 2001-2020, Tencent Cloud.

    快速回复 返回顶部 返回列表