开启辅助访问 收藏本站

数字音乐论坛

 找回密码
 立即注册
快捷导航
查看: 509|回复: 9

[林青-上帝呀我想请您吸支烟][mp3/192k/66MB][百度]

[复制链接] TA的其它主题
  • TA的每日心情

    1 小时前
  • 签到天数: 181 天

    [LV.7]常住居民III

    升级   100%

    588

    主题

    1943

    帖子

    2万

    积分

    版主

    Rank: 7Rank: 7Rank: 7

    积分
    23201
    威望
    4544
    金币
    11462
    贡献
    708

    斑竹专用勋章

    发表于 2019-12-15 14:41:18 | 显示全部楼层 |阅读模式
    感谢原创

    出版:中唱广州
    制作发行:中唱广州,香港飞时唱片协助制作
    年代:1995
    曲目:
    TRACK 01 AUDIO
    TITLE "贴心口袋 "
    PERFORMER "林青 "
    INDEX 01 00:00:00
    TRACK 02 AUDIO
    TITLE "情叙 "
    PERFORMER "林青 "
    INDEX 01 03:32:00
    TRACK 03 AUDIO
    TITLE "我要飞 "
    PERFORMER "林青 "
    INDEX 01 06:42:00
    TRACK 04 AUDIO
    TITLE "老家 "
    PERFORMER "林青 "
    INDEX 01 11:47:00
    TRACK 05 AUDIO
    TITLE "还我 "
    PERFORMER "林青 "
    INDEX 01 16:09:00
    TRACK 06 AUDIO
    TITLE "爸爸,对我发发火 "
    PERFORMER "林青 "
    INDEX 01 20:30:00
    TRACK 07 AUDIO
    TITLE "有无搞错 "
    PERFORMER "林青 "
    INDEX 01 24:23:00
    TRACK 08 AUDIO
    TITLE "分手后还是朋友 "
    PERFORMER "林青 "
    INDEX 01 27:24:00
    TRACK 09 AUDIO
    TITLE "我是路人你是雨 "
    PERFORMER "林青 "
    INDEX 01 31:46:00
    TRACK 10 AUDIO
    TITLE "辛苦的等 "
    PERFORMER "林青 "
    INDEX 01 35:14:00
    TRACK 11 AUDIO
    TITLE "醉汉 "
    PERFORMER "林青 "
    INDEX 01 39:05:00
    TRACK 12 AUDIO
    TITLE "上帝呀!请您吸支烟 "
    PERFORMER "林青 "
    INDEX 01 42:39:00

    游客,如果您要查看本帖隐藏内容请回复


                                   
    登录/注册后可看大图

    [audio]
    [/audio]

    评分

    参与人数 1金币 +6 收起 理由
    WSAN + 6

    查看全部评分

    回复

    使用道具 举报

  • TA的每日心情
    开心
    2020-8-24 15:05
  • 签到天数: 134 天

    [LV.7]常住居民III

    升级   54.7%

    1

    主题

    361

    帖子

    1094

    积分

    新手上路

    Rank: 1

    积分
    1094
    威望
    100
    金币
    533
    贡献
    0
    发表于 2019-12-15 17:56:52 | 显示全部楼层
    太冷门了,歌曲的名字比较诙谐
    回复

    使用道具 举报

  • TA的每日心情

    1 小时前
  • 签到天数: 169 天

    [LV.7]常住居民III

    升级   0%

    59

    主题

    1966

    帖子

    1万

    积分

    论坛元老

    Rank: 8Rank: 8

    积分
    11776
    威望
    2041
    金币
    5142
    贡献
    581

    发帖高手勋章

    发表于 2019-12-15 20:23:27 | 显示全部楼层
    95年的老磁带,比较少见的专辑,还是论坛厉害,给挖掘出来啦。
    回复

    使用道具 举报

  • TA的每日心情

    昨天 04:44
  • 签到天数: 158 天

    [LV.7]常住居民III

    升级   18.5%

    23

    主题

    1051

    帖子

    3740

    积分

    中级会员

    Rank: 3Rank: 3

    积分
    3740
    威望
    204
    金币
    2278
    贡献
    3
    发表于 2019-12-15 23:38:42 | 显示全部楼层
    我买过这磁带,不过早忘了,听调跟崔健似的,可惜音质不好
    回复

    使用道具 举报

  • TA的每日心情
    难过
    7 小时前
  • 签到天数: 174 天

    [LV.7]常住居民III

    升级   78.6%

    2

    主题

    1313

    帖子

    6144

    积分

    中级会员

    Rank: 3Rank: 3

    积分
    6144
    威望
    358
    金币
    4115
    贡献
    0
    发表于 2019-12-16 07:21:21 | 显示全部楼层
    没有听过,在网络上见过这张专辑歌手的介绍,谢谢陈版。
    回复

    使用道具 举报

  • TA的每日心情
    擦汗
    11 小时前
  • 签到天数: 179 天

    [LV.7]常住居民III

    升级   0%

    36

    主题

    4674

    帖子

    1万

    积分

    论坛元老

    Rank: 8Rank: 8

    积分
    12938
    威望
    3506
    金币
    1144
    贡献
    108
    发表于 2019-12-17 02:04:03 | 显示全部楼层
    这个专辑很少见,感谢陈三哥分享!
    回复

    使用道具 举报

  • TA的每日心情
    无聊
    2020-7-23 18:59
  • 签到天数: 28 天

    [LV.4]偶尔看看III

    升级   19.9%

    2

    主题

    819

    帖子

    2199

    积分

    注册会员

    Rank: 2

    积分
    2199
    威望
    686
    金币
    0
    贡献
    8
    发表于 2020-1-29 22:59:29 | 显示全部楼层
    连续看到三个姓林的歌手,竟然一个都没听说过
    回复

    使用道具 举报

  • TA的每日心情

    11 分钟前
  • 签到天数: 25 天

    [LV.4]偶尔看看III

    升级   8.9%

    1

    主题

    102

    帖子

    178

    积分

    新手上路

    Rank: 1

    积分
    178
    威望
    37
    金币
    2
    贡献
    0
    发表于 7 天前 | 显示全部楼层
    广东的原创歌手。可惜风格不适合在广东发展,没有红起来。
    回复

    使用道具 举报

  • TA的每日心情

    16 小时前
  • 签到天数: 177 天

    [LV.7]常住居民III

    升级   69.2%

    1

    主题

    1353

    帖子

    2692

    积分

    注册会员

    Rank: 2

    积分
    2692
    威望
    574
    金币
    191
    贡献
    0
    发表于 6 天前 | 显示全部楼层
    值得听听的好专辑,岁月如刀,一晃二十几年了!
    回复

    使用道具 举报

  • TA的每日心情

    前天 00:03
  • 签到天数: 2 天

    [LV.1]初来乍到

    升级   4.6%

    1

    主题

    24

    帖子

    92

    积分

    新手上路

    Rank: 1

    积分
    92
    威望
    21
    金币
    26
    贡献
    0
    发表于 3 天前 | 显示全部楼层
    不知道为何,试听听不了,第一次听他的歌
    回复

    使用道具 举报

    您需要登录后才可以回帖 登录 | 立即注册

    本版积分规则

    本站2008-12-18至今已运行4292天。欢迎光临!

    Archiver|手机版|小黑屋|数字音乐论坛 ( 津ICP备09009336号-1 )

    GMT+8, 2020-9-18 22:09 , Processed in 0.437500 second(s), 37 queries .

    Powered by Discuz! X3.4

    © 2008-2020 上网要文明 发言要理性 本站禁灌水

    快速回复 返回顶部 返回列表