开启辅助访问 天气预报 收藏本站

数字音乐论坛

 找回密码
 立即注册
快捷导航
查看: 212|回复: 14

冯晓泉、曾格格 - 天上人间【上海声像/原抓】WAV/百度

[复制链接]

签到天数: 237 天

[LV.7]常住居民III

9

主题

473

帖子

3230

积分

中级会员

Rank: 3Rank: 3

积分
3230
威望
333
金币
2037
贡献
54
发表于 2019-11-4 20:00:26 | 显示全部楼层 |阅读模式
压缩包内没放图。所有信息都放在这页面了。

仅以此贴祝贺论坛“壮丽70周年奋斗新时代数字音乐大赛”成功与致谢坛友对鄙人的支持鼓励。

说明:
度盘设置分享的时候提示有敏感字眼。虽然做了修改,但是并不能保证分享长期有效。

上海声像
2001年


01 天上人间
02 雪山
03 雨中花
04 亚非风情
05 阳关行
06 花之舞
07 空
08 逍遥自在
09 牧场
10 踏春歌
11 天上人间(2版)
fenmian.jpg
碟片1.jpg
fengdi.jpg

https://pan.baidu.com/s/1xZr8GFrBXK3_2B76LN_K1A
游客,如果您要查看本帖隐藏内容请回复

评分

参与人数 1威望 +8 金币 +16 贡献 +8 收起 理由
四季歌 + 8 + 16 + 8 很给力!

查看全部评分

回复

使用道具 举报

签到天数: 237 天

[LV.7]常住居民III

9

主题

473

帖子

3230

积分

中级会员

Rank: 3Rank: 3

积分
3230
威望
333
金币
2037
贡献
54
 楼主| 发表于 2019-11-4 20:05:48 | 显示全部楼层
本帖最后由 1818188 于 2019-11-4 20:10 编辑

抓轨文件仅显示是原抓的信息。隐蔽了含有个人信息的网络用户名。

Exact Audio Copy V1.3 from 2. September 2016

EAC 抓取日志文件从25. 五月 2019, 11:24

冯晓泉、曾格格 / 天上人间

使用驱动器  :PIONEER DVD-RW  DVR-S21   Adapter: 1  ID: 0

读取模式      : 可靠Secure
使用精确流     : 是
清空音频缓存    : 否
使用 C2 指示器 : 否

读取偏移校正:               : 6
读取 Lead-In 和 Lead-Out : 否
用静音填充抓取中丢失偏移的采样       : 是
去除首尾静音块               : 否
在CRC 计算中使用了空样本       : 是
已用接口                  : Win NT 及 2000 本地 Win32 接口

所用输出模式: : 内部 WAV 函数
样本格式    : 44.100 Hz; 16 Bit; 立体声


已抓取 CD 的 TOC

     音轨 |    起始    |    长度    |  起始扇区  |  结束扇区  
    --------------------------------------------
      1 |  0:00.00 |  4:50.40 |      0 |  21789
      2 |  4:50.40 |  4:54.31 |  21790 |  43870
      3 |  9:44.71 |  5:17.48 |  43871 |  67693
      4 | 15:02.44 |  4:43.40 |  67694 |  88958
      5 | 19:46.09 |  4:38.34 |  88959 | 109842
      6 | 24:24.43 |  4:47.67 | 109843 | 131434
      7 | 29:12.35 |  6:35.48 | 131435 | 161107
      8 | 35:48.08 |  4:56.45 | 161108 | 183352
      9 | 40:44.53 |  6:28.02 | 183353 | 212454
     10 | 47:12.55 |  4:01.06 | 212455 | 230535
     11 | 51:13.61 |  6:59.30 | 230536 | 261990


范围状态及错误

已选择范围

     文件名 D:\XXXX原抓\冯晓泉、曾格格 - 天上人间.wav

     峰值电平 100.0 %
     抓取速度 3.9 X
     范围质量 99.9 %
     复制 CRC 95A18E72
     复制成功

没有错误发生

状态报告结尾

---- CUETools DB Plugin V2.1.6

[CTDB TOCID: au5zzm0MbU2SZ22EoqY_1iDHtPc-] disk not present in database
Submit result: au5zzm0MbU2SZ22EoqY_1iDHtPc- has been uploaded
回复

使用道具 举报

签到天数: 551 天

[LV.9]以坛为家II

2

主题

1453

帖子

3329

积分

中级会员

Rank: 3Rank: 3

积分
3329
威望
851
金币
174
贡献
0
发表于 2019-11-4 21:21:33 | 显示全部楼层
主打歌比较好听,2000年左右火过一阵
回复

使用道具 举报

签到天数: 581 天

[LV.9]以坛为家II

5

主题

860

帖子

1654

积分

新手上路

Rank: 1

积分
1654
威望
280
金币
252
贡献
-18
发表于 2019-11-4 21:28:35 | 显示全部楼层
新创作品?少听到的曲目。。。。
回复

使用道具 举报

签到天数: 666 天

[LV.9]以坛为家II

16

主题

950

帖子

6498

积分

中级会员

Rank: 3Rank: 3

积分
6498
威望
502
金币
4422
贡献
122
发表于 2019-11-5 01:20:11 | 显示全部楼层
不错的专辑很喜欢冯晓泉,可惜没有无水印大图。没有收藏价值只有聆听一下了。
有人说到再没有比歌曲更忠诚的事物了,人会跑远,记忆会消逝,多年以后,这些歌仍会带着我们的故事,在我们眼中闪现光芒。
回复

使用道具 举报

签到天数: 666 天

[LV.9]以坛为家II

34

主题

3096

帖子

1万

积分

论坛元老

Rank: 8Rank: 8

积分
10371
威望
2307
金币
2553
贡献
108
发表于 2019-11-5 03:48:18 | 显示全部楼层
吹奏乐演奏伉俪,感谢楼主分享!
回复

使用道具 举报

签到天数: 681 天

[LV.9]以坛为家II

1

主题

797

帖子

1453

积分

新手上路

Rank: 1

积分
1453
威望
114
金币
428
贡献
0
发表于 2019-11-5 04:09:50 | 显示全部楼层
楼主好碟啊,谢谢分享好听的音乐,支持。。。
回复

使用道具 举报

签到天数: 578 天

[LV.9]以坛为家II

1

主题

1525

帖子

3384

积分

中级会员

Rank: 3Rank: 3

积分
3384
威望
923
金币
8
贡献
5
发表于 2019-11-5 07:53:26 | 显示全部楼层
只熟悉主打歌曲,谢谢分享
回复

使用道具 举报

签到天数: 424 天

[LV.9]以坛为家II

1

主题

474

帖子

994

积分

新手上路

Rank: 1

积分
994
威望
49
金币
422
贡献
0
发表于 2019-11-5 08:12:29 | 显示全部楼层
模范夫妻组合
回复

使用道具 举报

签到天数: 467 天

[LV.9]以坛为家II

1

主题

561

帖子

1163

积分

新手上路

Rank: 1

积分
1163
威望
89
金币
424
贡献
0
发表于 2019-11-5 08:25:43 | 显示全部楼层
本帖最后由 frahu 于 2019-11-5 08:34 编辑

欣赏欣赏冯晓泉、曾格格 - 天上人间,谢谢分享。就是不知道是我电脑问题还是文件文件问题,2个rar都解压不了
回复

使用道具 举报

您需要登录后才可以回帖 登录 | 立即注册

本版积分规则

Title - Artist
0:00

    Archiver|手机版|小黑屋|数字音乐论坛 ( 津ICP备09009336号-1 )

    GMT+8, 2019-11-22 10:45 , Processed in 0.125002 second(s), 49 queries .

    Powered by Discuz! X3.4

    © 2008-2019 上网要文明 发言要理性 本站禁灌水

    快速回复 返回顶部 返回列表