开启辅助访问 天气预报 收藏本站

数字音乐论坛

 找回密码
 立即注册
快捷导航
查看: 288|回复: 12

[迷你情歌 李燕华 张晶演唱][WAV/433MB][百度]

[复制链接]

签到天数: 38 天

[LV.5]常住居民I

19

主题

59

帖子

2780

积分

注册会员

Rank: 2

积分
2780
威望
408
金币
1716
贡献
189
发表于 2019-10-12 14:16:28 | 显示全部楼层 |阅读模式
本帖最后由 小雷1987 于 2019-10-12 14:16 编辑

1.jpg
2.jpg
3.jpg
4.jpg
广西民族声像艺术公司出版
天津音像有限公司制作经销
编号:AB-1055
演唱:李燕华 张晶

专辑曲目:
A面
1.谁为谁流泪 试听[audio=1][/audio]
2.永远不更改
3.是否把我遗忘
4.与我同行
5.你潇洒我漂亮
6.想你想你
7.枫叶情
B面
8.假如爱是真的
9.爱的和谐
10.苦涩的海风
11.何日能再来
12.谁在欺骗自己
13.不想你
14.舞女泪

游客,如果您要查看本帖隐藏内容请回复


迷你情歌 李燕华 张晶演唱 密码.zip

198 Bytes, 下载次数: 14

售价: 20 金币  [记录]

评分

参与人数 1威望 +8 金币 +16 贡献 +8 收起 理由
四季歌 + 8 + 16 + 8

查看全部评分

回复

使用道具 举报

签到天数: 284 天

[LV.8]以坛为家I

6

主题

749

帖子

3983

积分

中级会员

Rank: 3Rank: 3

积分
3983
威望
536
金币
2115
贡献
47
发表于 2019-10-12 15:04:58 | 显示全部楼层
选歌不错,都是经典老歌值得分享。
回复

使用道具 举报

签到天数: 675 天

[LV.9]以坛为家II

76

主题

1699

帖子

1万

积分

贵宾

Rank: 7Rank: 7Rank: 7

积分
16503
威望
2146
金币
9919
贡献
578

贵宾专用勋章

发表于 2019-10-12 15:19:55 | 显示全部楼层
两位歌手倾力演唱了多首韩宝仪的歌曲。
我新发布了帖子《[杨钰莹 - 梦中花][WAV/445MB][百度][代发]》,快来围观吧!
回复

使用道具 举报

签到天数: 643 天

[LV.9]以坛为家II

16

主题

1126

帖子

3395

积分

vip

Rank: 5Rank: 5

积分
3395
威望
682
金币
797
贡献
108
发表于 2019-10-12 16:08:54 | 显示全部楼层
看目录她们演唱了韩宝仪的歌,感谢制作分享。
回复

使用道具 举报

签到天数: 662 天

[LV.9]以坛为家II

420

主题

1376

帖子

1万

积分

版主

Rank: 7Rank: 7Rank: 7

积分
14067
威望
2780
金币
6590
贡献
541

斑竹专用勋章

发表于 2019-10-12 21:23:38 | 显示全部楼层
最喜欢的磁带就是80年代出版的 谢谢
回复

使用道具 举报

签到天数: 512 天

[LV.9]以坛为家II

26

主题

766

帖子

1万

积分

贵宾

Rank: 7Rank: 7Rank: 7

积分
10145
威望
726
金币
7667
贡献
235

发帖高手勋章

发表于 2019-10-13 20:32:57 | 显示全部楼层
本帖最后由 慧点 于 2019-10-13 21:00 编辑

TITLE "迷你情歌"
FILE "迷你情歌 李燕华 张晶演唱.wav" WAVE
  TRACK 01 AUDIO
    TITLE "谁为谁流泪"
    PERFORMER "李燕华"
    INDEX 01 00:00:00
  TRACK 02 AUDIO
    TITLE "永远不更改"
    PERFORMER "李燕华"
    INDEX 01 02:36:50
  TRACK 03 AUDIO
    TITLE "是否把我遗忘"
    PERFORMER "张晶"
    INDEX 01 06:02:50
  TRACK 04 AUDIO
    TITLE "与我同行"
    PERFORMER "张晶"
    INDEX 01 09:23:30
  TRACK 05 AUDIO
    TITLE "你潇洒我漂亮"
    PERFORMER "张晶"
    INDEX 01 12:42:39
  TRACK 06 AUDIO
    TITLE "想你想你"
    PERFORMER "张晶"
    INDEX 01 16:00:50
  TRACK 07 AUDIO
    TITLE "枫叶情"
    PERFORMER "李燕华"
    INDEX 01 18:56:00
  TRACK 08 AUDIO
    TITLE "假如爱是真的"
    PERFORMER "李燕华"
    INDEX 01 21:18:50
  TRACK 09 AUDIO
    TITLE "爱的和谐"
    PERFORMER "李燕华"
    INDEX 01 23:48:57
  TRACK 10 AUDIO
    TITLE "苦涩的海风"
    PERFORMER "张晶"
    INDEX 01 26:58:20
  TRACK 11 AUDIO
    TITLE "何日能再来"
    PERFORMER "李燕华"
    INDEX 01 29:59:09
  TRACK 12 AUDIO
    TITLE "谁在欺骗自己"
    PERFORMER "李燕华"
    INDEX 01 33:12:00
  TRACK 13 AUDIO
    TITLE "不想你"
    PERFORMER "李燕华"
    INDEX 01 35:51:40
  TRACK 14 AUDIO
    TITLE "舞女泪"
    PERFORMER "张晶"
    INDEX 01 39:56:00

点评

感谢编辑制作cue  发表于 2019-10-14 05:35
回复

使用道具 举报

签到天数: 509 天

[LV.9]以坛为家II

3

主题

864

帖子

1665

积分

新手上路

Rank: 1

积分
1665
威望
364
金币
67
贡献
6
发表于 2019-10-14 05:25:44 | 显示全部楼层
回忆一下,听听这个版本,感谢小雷
回复

使用道具 举报

签到天数: 284 天

[LV.8]以坛为家I

6

主题

749

帖子

3983

积分

中级会员

Rank: 3Rank: 3

积分
3983
威望
536
金币
2115
贡献
47
发表于 2019-10-14 08:33:39 | 显示全部楼层
张晶的声音太特殊一听就知道!
回复

使用道具 举报

签到天数: 625 天

[LV.9]以坛为家II

3

主题

1642

帖子

3751

积分

中级会员

Rank: 3Rank: 3

积分
3751
威望
1015
金币
71
贡献
8
发表于 2019-10-14 14:50:53 | 显示全部楼层
还没听过这歌手,有几首翻唱的是韩宝仪的歌曲。
回复

使用道具 举报

签到天数: 659 天

[LV.9]以坛为家II

34

主题

3070

帖子

1万

积分

论坛元老

Rank: 8Rank: 8

积分
10364
威望
2293
金币
2600
贡献
108
发表于 2019-10-16 16:24:34 | 显示全部楼层
感谢分享,李燕华听说过,张晶的歌不熟悉,听听看
回复

使用道具 举报

您需要登录后才可以回帖 登录 | 立即注册

本版积分规则

Title - Artist
0:00

    Archiver|手机版|小黑屋|数字音乐论坛 ( 津ICP备09009336号-1 )

    GMT+8, 2019-11-16 07:18 , Processed in 0.140625 second(s), 50 queries .

    Powered by Discuz! X3.4

    © 2008-2019 上网要文明 发言要理性 本站禁灌水

    快速回复 返回顶部 返回列表