开启辅助访问 天气预报 收藏本站

数字音乐论坛

 找回密码
 立即注册
查看: 186|回复: 14

[参赛作品] 黄准声乐作品精选CD1[上海音乐出版社][WAV整轨/458MB/百度]

[复制链接]

签到天数: 218 天

[LV.7]常住居民III

8

主题

445

帖子

1403

积分

新手上路

Rank: 1

积分
1403
威望
307
金币
299
贡献
45
发表于 2019-10-7 23:00:14 | 显示全部楼层 |阅读模式
本帖最后由 1818188 于 2019-10-8 05:22 编辑

      黄准,女。1944年毕业于鲁迅艺术学院戏剧系。在戏剧系结业后又进入音乐系学习。1946年离开延安去大连文工团。1947年进东北电影制片厂,为解放区的第一部故事片《留下他打老蒋》作曲,1948年创作主题歌《军爱民、民拥军》,1949年先后在北京电影制片厂、上海电影制片厂作曲。     几十年来,为《家》、《女蓝5号》、《香飘万里》、《苗家儿女》、《兰兰和冬冬》、《舞台姐妹》、《雾都茫茫》、《杜十娘》、《爱情啊,你姓什么》、《牧马人》、《美食家》《青春万岁》等几十部影片作曲。其中的“满山葡萄红艳艳”、“蚕花姑娘心向党”等曲目都是那个年代广为传唱的经典。此外还有文革电影《春苗》插曲“春苗出土迎朝阳”也是传唱一时。
     她创作的《娘子军连歌》产生了巨大反响,至今都是很多主题音乐会的热门曲目。《小猫钓鱼》的主题歌“劳动最光荣”获全国儿童歌曲奖,是那个时代小学音乐课必选曲目。《蹉跎岁月》主题歌获全国青年最喜爱的歌曲三等奖。除了影视歌曲,她创作的《在老师身边》(歌词:自从踏进了学校的门槛,我们就生活在老师的身边,从一个爱哭的孩子,变成了一个有知识的少年。。。。。。)获第二届全国儿童歌曲评选一等奖。

   此专辑是随同文本歌集一起出版发行的,配有歌曲与钢琴演奏两张CD,选曲都是原汁原味的录音钢琴演奏那张就不发了。缺憾的是选编出版时没有将她最有影响的作品都收录其中,应该是出版单位出于时代环境因素考虑的原因吧。

黄准声乐作品精选CD1(演唱版)


上海音乐出版社  
2009年


劳动最光荣          上海市少年宫合唱团   动画片《小猫钓鱼》主题歌
青春闪光            上海合唱团   故事片《女篮五号》插曲
满山葡萄红艳艳      孙金信、金钟鸣   故事片《苗家儿女》插曲      
蚕花姑娘心向党      叶彩华   故事片《蚕花姑娘》主题歌
采桑歌              叶彩华   故事片《蚕花姑娘》插曲
舞台三姐妹       故事片《舞台姐妹》插曲 三首 (台外尚有台、年年难唱年年唱、朗朗天空任鸟飞) 领唱:钱丽亚  伴唱:上海歌剧团合唱团   
敕勒歌                刘秉义   故事片《牧马人》主题歌     
轻歌悄唱             李元华、吕文科   音乐故事片《北斗》插曲
一支难忘的歌        关牧村   电视剧《蹉跎岁月》主题歌   
登山谣                 上海歌剧院合唱团   故事片《爱情啊,你姓什么》插曲
爱情啊,你姓什么    吴雁泽   故事片《爱情啊,你姓什么》插曲
金色的故乡          沈小岑   故事片《滴水观音》插曲
故乡的路            廖昌永   电视剧《何穆医生》主题歌
桃花水               董文华
百岁不用愁          上海歌剧院合唱团    朗诵:岳彩富
二泉                  方晶
张开银幕的翅膀      刘恋(花腔) 上海小荧星合唱团   中国国际儿童电影节节歌
娘子军连歌          上海歌剧院合唱团   故事片《红色娘子军》主题歌

fenm.jpg
CD1a.jpg
fengdi.jpg


下载
游客,如果您要查看本帖隐藏内容请回复



抓轨文件不放进压缩包 直接贴在这里了

Exact Audio Copy V1.3 from 2. September 2016

EAC 抓取日志文件从2. 五月 2019, 21:26

  / 黄准声乐作品精选CD1

使用驱动器  :PIONEER DVD-RW  DVR-S21   Adapter: 1  ID: 0

读取模式      : 可靠Secure
使用精确流     : 是
清空音频缓存    : 否
使用 C2 指示器 : 否

读取偏移校正:               : 6
读取 Lead-In 和 Lead-Out : 否
用静音填充抓取中丢失偏移的采样       : 是
去除首尾静音块               : 否
在CRC 计算中使用了空样本       : 是
已用接口                  : Win NT 及 2000 本地 Win32 接口

所用输出模式: : 内部 WAV 函数
样本格式    : 44.100 Hz; 16 Bit; 立体声


已抓取 CD 的 TOC

     音轨 |    起始    |    长度    |  起始扇区  |  结束扇区  
    --------------------------------------------
      1 |  0:00.00 |  1:44.17 |      0 |   7816
      2 |  1:44.17 |  3:43.55 |   7817 |  24596
      3 |  5:27.72 |  3:20.09 |  24597 |  39605
      4 |  8:48.06 |  3:30.35 |  39606 |  55390
      5 | 12:18.41 |  3:20.03 |  55391 |  70393
      6 | 15:38.44 |  6:05.58 |  70394 |  97826
      7 | 21:44.27 |  3:33.59 |  97827 | 113860
      8 | 25:18.11 |  3:38.16 | 113861 | 130226
      9 | 28:56.27 |  5:16.10 | 130227 | 153936
     10 | 34:12.37 |  2:42.74 | 153937 | 166160
     11 | 36:55.36 |  3:27.06 | 166161 | 181691
     12 | 40:22.42 |  2:16.44 | 181692 | 191935
     13 | 42:39.11 |  3:43.47 | 191936 | 208707
     14 | 46:22.58 |  3:31.08 | 208708 | 224540
     15 | 49:53.66 |  2:34.12 | 224541 | 236102
     16 | 52:28.03 |  3:03.05 | 236103 | 249832
     17 | 55:31.08 |  4:27.58 | 249833 | 269915
     18 | 59:58.66 |  5:35.11 | 269916 | 295051


范围状态及错误

已选择范围

     文件名 D:\黄准声乐作品精选CD1.wav


     峰值电平 97.7 %
     抓取速度 1.3 X
     范围质量 97.1 %
     复制 CRC F04BE966
     复制成功

没有错误发生

---- CUETools DB Plugin V2.1.6

[CTDB TOCID: ErymZAw3Wp20EB2URes2_LZ2MNo-] disk not present in database
Submit result: insufficient quality





















评分

参与人数 1威望 +8 金币 +16 贡献 +8 收起 理由
四季歌 + 8 + 16 + 8

查看全部评分

回复

使用道具 举报

签到天数: 249 天

[LV.8]以坛为家I

4

主题

525

帖子

1440

积分

新手上路

Rank: 1

积分
1440
威望
272
金币
371
贡献
0
发表于 7 天前 | 显示全部楼层
很喜欢电视剧《蹉跎岁月》主题歌,特别有韵味的歌
回复

使用道具 举报

签到天数: 577 天

[LV.9]以坛为家II

2

主题

771

帖子

2586

积分

注册会员

Rank: 2

积分
2586
威望
215
金币
1368
贡献
17

VIP年费会员勋章

发表于 7 天前 | 显示全部楼层
这张是黄准的代表作很珍贵。多谢楼主!
来自安卓客户端来自安卓客户端
回复

使用道具 举报

签到天数: 639 天

[LV.9]以坛为家II

1

主题

897

帖子

1504

积分

新手上路

Rank: 1

积分
1504
威望
254
金币
99
贡献
0
发表于 7 天前 | 显示全部楼层
老作曲家的经典,非常喜欢,谢谢!
回复

使用道具 举报

签到天数: 216 天

[LV.7]常住居民III

2

主题

519

帖子

1280

积分

新手上路

Rank: 1

积分
1280
威望
296
金币
169
贡献
0
发表于 7 天前 | 显示全部楼层
看目录歌曲都熟悉好听,收下了,谢谢分享。
回复

使用道具 举报

签到天数: 625 天

[LV.9]以坛为家II

59

主题

1359

帖子

1万

积分

论坛元老

Rank: 8Rank: 8

积分
10939
威望
1740
金币
5530
贡献
565

发帖高手勋章

发表于 7 天前 | 显示全部楼层
资源比较稀有,谢谢1818188制作分享。
回复

使用道具 举报

签到天数: 605 天

[LV.9]以坛为家II

1

主题

960

帖子

2589

积分

注册会员

Rank: 2

积分
2589
威望
349
金币
931
贡献
0
发表于 7 天前 | 显示全部楼层
又红又专的老革命,又长知识了。感谢楼主分享。
回复

使用道具 举报

签到天数: 502 天

[LV.9]以坛为家II

1

主题

680

帖子

1122

积分

新手上路

Rank: 1

积分
1122
威望
177
金币
88
贡献
0
发表于 7 天前 | 显示全部楼层
老作曲家的作品,写过很多好听的电影歌曲.谢谢分享!
回复

使用道具 举报

签到天数: 382 天

[LV.9]以坛为家II

7

主题

1123

帖子

2939

积分

注册会员

Rank: 2

积分
2939
威望
808
金币
184
贡献
16
QQ
发表于 7 天前 | 显示全部楼层
黄准的作品,大都熟悉,谢谢分享。
回复

使用道具 举报

签到天数: 15 天

[LV.4]偶尔看看III

38

主题

124

帖子

2331

积分

注册会员

Rank: 2

积分
2331
威望
527
金币
1024
贡献
129
发表于 7 天前 | 显示全部楼层
老电影插曲,很喜欢,谢谢分享
回复

使用道具 举报

您需要登录后才可以回帖 登录 | 立即注册

本版积分规则

Title - Artist
0:00

    Archiver|手机版|小黑屋|数字音乐论坛 ( 津ICP备09009336号-1 )

    GMT+8, 2019-10-15 17:34 , Processed in 0.296875 second(s), 51 queries .

    Powered by Discuz! X3.4

    © 2008-2018 Comsenz Inc.|上网要文明 发言要理性 本站禁灌水

    快速回复 返回顶部 返回列表