开启辅助访问 天气预报 收藏本站

数字音乐论坛

 找回密码
 立即注册
快捷导航
查看: 323|回复: 21

[王雅莉 李丹 开心的女孩][WAV/371MB][百度][免费]

[复制链接]

签到天数: 12 天

[LV.3]偶尔看看II

9

主题

23

帖子

1250

积分

新手上路

Rank: 1

积分
1250
威望
236
金币
648
贡献
107
发表于 2019-9-2 19:35:36 | 显示全部楼层 |阅读模式
本帖最后由 小雷1987 于 2019-9-2 19:39 编辑

1.jpg 2.jpg
3.jpg 4.jpg
专辑:开心的女孩
演唱:王雅莉 李丹
出版:深圳音像公司出版发行
编号:爱威AA-2048

专辑曲目:
A面:
1.一日不见如三秋 试听:[audio=1][/audio]
2.痴情的爱
3.舞女
4.开心的女孩
5.就在今夜开始
6.除了你
B面:
1.何日能再来
2.水汪汪
3.为何逃避我
4.回头我也不要你
5.用爱将心偷
6.不能不想你

游客,如果您要查看本帖隐藏内容请回复



评分

参与人数 2威望 +20 金币 +27 贡献 +20 收起 理由
zjhjr + 8 + 16 + 8 很给力!
温古知新 + 12 + 11 + 12 很给力!

查看全部评分

回复

使用道具 举报

签到天数: 191 天

[LV.7]常住居民III

2

主题

452

帖子

1239

积分

新手上路

Rank: 1

积分
1239
威望
254
金币
279
贡献
0
发表于 2019-9-2 20:12:39 | 显示全部楼层
这二位歌手不太熟悉,好像一直没红,挺可惜的。
回复

使用道具 举报

签到天数: 488 天

[LV.9]以坛为家II

3

主题

830

帖子

1592

积分

新手上路

Rank: 1

积分
1592
威望
353
金币
50
贡献
6
发表于 2019-9-2 20:18:46 | 显示全部楼层
这张不熟悉,发帖辛苦了,谢谢分享-开心的女孩
回复

使用道具 举报

签到天数: 445 天

[LV.9]以坛为家II

2

主题

734

帖子

1866

积分

新手上路

Rank: 1

积分
1866
威望
282
金币
567
贡献
1
发表于 2019-9-2 21:09:22 | 显示全部楼层
不熟悉的专辑,当年不知出过多少这样的专辑。
回复

使用道具 举报

签到天数: 488 天

[LV.9]以坛为家II

3

主题

830

帖子

1592

积分

新手上路

Rank: 1

积分
1592
威望
353
金币
50
贡献
6
发表于 2019-9-2 21:12:31 | 显示全部楼层
PERFORMER "王雅莉 李丹"
TITLE "开心的女孩"
FILE "王雅莉 李丹-开心的女孩.wav" WAVE
  TRACK 01 AUDIO
    TITLE "一日不见如三秋"
    PERFORMER "王雅莉 李丹"
    INDEX 01 00:00:00
  TRACK 02 AUDIO
    TITLE "痴情的爱"
    PERFORMER "王雅莉 李丹"
    INDEX 01 02:43:15
  TRACK 03 AUDIO
    TITLE "舞女"
    PERFORMER "王雅莉 李丹"
    INDEX 01 06:10:02
  TRACK 04 AUDIO
    TITLE "开心的女孩"
    PERFORMER "王雅莉 李丹"
    INDEX 01 09:35:02
  TRACK 05 AUDIO
    TITLE "就在今夜开始"
    PERFORMER "王雅莉 李丹"
    INDEX 01 11:34:02
  TRACK 06 AUDIO
    TITLE "除了你"
    PERFORMER "王雅莉 李丹"
    INDEX 01 15:30:32
  TRACK 07 AUDIO
    TITLE "何日能再来"
    PERFORMER "王雅莉 李丹"
    INDEX 01 18:42:39
  TRACK 08 AUDIO
    TITLE "水汪汪"
    PERFORMER "王雅莉 李丹"
    INDEX 01 22:04:06
  TRACK 09 AUDIO
    TITLE "为何逃避我"
    PERFORMER "王雅莉 李丹"
    INDEX 01 25:20:53
  TRACK 10 AUDIO
    TITLE "回头我也不要你"
    PERFORMER "王雅莉 李丹"
    INDEX 01 27:56:28
  TRACK 11 AUDIO
    TITLE "用爱将心偷"
    PERFORMER "王雅莉 李丹"
    INDEX 01 30:51:34
  TRACK 12 AUDIO
    TITLE "不能不想你"
    PERFORMER "王雅莉 李丹"
    INDEX 01 33:58:21
回复

使用道具 举报

签到天数: 603 天

[LV.9]以坛为家II

30

主题

2890

帖子

9348

积分

金牌会员

Rank: 6Rank: 6

积分
9348
威望
2122
金币
2142
贡献
72
发表于 2019-9-3 00:20:00 | 显示全部楼层
都是翻唱的当时热门的甜歌,感谢分享
回复

使用道具 举报

签到天数: 586 天

[LV.9]以坛为家II

14

主题

1037

帖子

2440

积分

vip

Rank: 5Rank: 5

积分
2440
威望
633
金币
38
贡献
99
发表于 2019-9-3 07:07:06 | 显示全部楼层
这盘没听过,不知道包里有没有图片,感谢制作分享。
回复

使用道具 举报

签到天数: 523 天

[LV.9]以坛为家II

1

主题

1404

帖子

3170

积分

中级会员

Rank: 3Rank: 3

积分
3170
威望
857
金币
47
贡献
5
发表于 2019-9-3 07:38:46 | 显示全部楼层
没听过的磁带,谢谢分享
回复

使用道具 举报

签到天数: 597 天

[LV.9]以坛为家II

2

主题

894

帖子

2661

积分

注册会员

Rank: 2

积分
2661
威望
304
金币
1157
贡献
2
QQ
发表于 2019-9-3 07:44:27 | 显示全部楼层
翻唱的都是韩宝仪的歌曲挺好的没见过的歌手
来自安卓客户端来自安卓客户端
老歌
回复

使用道具 举报

签到天数: 259 天

[LV.8]以坛为家I

4

主题

675

帖子

1985

积分

新手上路

Rank: 1

积分
1985
威望
453
金币
375
贡献
29
发表于 2019-9-3 10:10:39 | 显示全部楼层
实话实说,这盘磁带特别好听,声音甜美不输于原唱!
回复

使用道具 举报

您需要登录后才可以回帖 登录 | 立即注册

本版积分规则

Archiver|手机版|小黑屋|数字音乐论坛 ( 津ICP备09009336号-1 )

GMT+8, 2019-9-20 03:25 , Processed in 0.375000 second(s), 72 queries .

Powered by Discuz! X3.4

© 2008-2019 上网要文明 发言要理性 本站禁灌水

快速回复 返回顶部 返回列表