开启辅助访问 天气预报 收藏本站

数字音乐论坛

 找回密码
 立即注册
快捷导航
查看: 439|回复: 29

[王艳 印尼新加坡华语流行歌曲精选][WAV/415MB][百度][免费]

[复制链接]

签到天数: 12 天

[LV.3]偶尔看看II

9

主题

23

帖子

1250

积分

新手上路

Rank: 1

积分
1250
威望
236
金币
648
贡献
107
发表于 2019-9-2 18:51:29 | 显示全部楼层 |阅读模式
本帖最后由 小雷1987 于 2019-9-2 18:51 编辑

1.jpg
2.jpg
3.jpg
4.jpg
专辑:回眸 印尼新加坡流行歌曲精选
演唱:王艳
出版:汕头音像出版社出版
编号:HL
·S-141
日期:1988年


专辑曲目:
A面:
1.无奈的泪滴 试听:
[audio=1][/audio]
2.无奈的思绪
3.星星知我心
4.无言的温柔
5.最后一次回眸
6.无奈的分手
B面
1.粉红色的回忆
2.共有一份温柔
3.为何逃避我
4.三个字
5.我告诉自己
6.你潇洒我漂亮

游客,如果您要查看本帖隐藏内容请回复

















评分

参与人数 2威望 +53 金币 +27 贡献 +20 收起 理由
zjhjr + 8 + 16 + 8 很给力!
温古知新 + 45 + 11 + 12 赞一个!

查看全部评分

回复

使用道具 举报

签到天数: 488 天

[LV.9]以坛为家II

3

主题

830

帖子

1592

积分

新手上路

Rank: 1

积分
1592
威望
353
金币
50
贡献
6
发表于 2019-9-2 18:55:28 | 显示全部楼层
越听越好听。谢楼主把印尼新加坡华语流行歌曲精选与我们分享
回复

使用道具 举报

签到天数: 617 天

[LV.9]以坛为家II

1

主题

1340

帖子

3121

积分

中级会员

Rank: 3Rank: 3

积分
3121
威望
603
金币
575
贡献
0
发表于 2019-9-2 19:09:52 | 显示全部楼层
无奈的泪滴这首歌很好听,不知原唱是谁。
回复

使用道具 举报

签到天数: 583 天

[LV.9]以坛为家II

1

主题

911

帖子

1654

积分

新手上路

Rank: 1

积分
1654
威望
322
金币
99
贡献
0
发表于 2019-9-2 19:20:21 | 显示全部楼层
他们的歌曲旋律都很美,感谢楼主分享。
回复

使用道具 举报

签到天数: 488 天

[LV.9]以坛为家II

3

主题

830

帖子

1592

积分

新手上路

Rank: 1

积分
1592
威望
353
金币
50
贡献
6
发表于 2019-9-2 20:14:08 | 显示全部楼层
PERFORMER "王艳"
TITLE "回眸.回眸(印尼新加坡华语流行歌曲精选)"
FILE "王艳-回眸.回眸(印尼新加坡华语流行歌曲精选).wav" WAVE
  TRACK 01 AUDIO
    TITLE "无奈的泪滴"
    PERFORMER "王艳"
    INDEX 01 00:00:00
  TRACK 02 AUDIO
    TITLE "无奈的思绪"
    PERFORMER "王艳"
    INDEX 01 04:13:45
  TRACK 03 AUDIO
    TITLE "星星知我心"
    PERFORMER "王艳"
    INDEX 01 07:45:34
  TRACK 04 AUDIO
    TITLE "无言的温柔"
    PERFORMER "王艳"
    INDEX 01 10:32:59
  TRACK 05 AUDIO
    TITLE "最后一次回眸"
    PERFORMER "王艳"
    INDEX 01 13:36:56
  TRACK 06 AUDIO
    TITLE "无奈的分手"
    PERFORMER "王艳"
    INDEX 01 17:52:33
  TRACK 07 AUDIO
    TITLE "粉红色的回忆"
    PERFORMER "王艳"
    INDEX 01 21:12:51
  TRACK 08 AUDIO
    TITLE "共有一份温柔"
    PERFORMER "王艳"
    INDEX 01 24:34:16
  TRACK 09 AUDIO
    TITLE "为何逃避我"
    PERFORMER "王艳"
    INDEX 01 28:27:39
  TRACK 10 AUDIO
    TITLE "三个字"
    PERFORMER "王艳"
    INDEX 01 31:09:02
  TRACK 11 AUDIO
    TITLE "我告诉自己"
    PERFORMER "王艳"
    INDEX 01 34:11:47
  TRACK 12 AUDIO
    TITLE "你潇洒我漂亮"
    PERFORMER "王艳"
    INDEX 01 37:37:29
回复

使用道具 举报

签到天数: 191 天

[LV.7]常住居民III

2

主题

452

帖子

1239

积分

新手上路

Rank: 1

积分
1239
威望
254
金币
279
贡献
0
发表于 2019-9-2 20:15:00 | 显示全部楼层
好听的歌曲不能错过的,谢谢分享好听的专辑。
回复

使用道具 举报

签到天数: 52 天

[LV.5]常住居民I

1

主题

294

帖子

783

积分

新手上路

Rank: 1

积分
783
威望
233
金币
23
贡献
0
发表于 2019-9-2 21:45:46 | 显示全部楼层
整张专辑都是翻唱韩宝仪的歌曲,可见当时国内歌迷对韩宝仪的喜爱程度。歌手不是所熟悉的,试听出错很郁闷。
回复

使用道具 举报

签到天数: 522 天

[LV.9]以坛为家II

13

主题

909

帖子

2588

积分

注册会员

Rank: 2

积分
2588
威望
489
金币
632
贡献
69
发表于 2019-9-2 21:52:53 | 显示全部楼层
小雷子终于发力了  支持一下
回复

使用道具 举报

签到天数: 603 天

[LV.9]以坛为家II

30

主题

2890

帖子

9348

积分

金牌会员

Rank: 6Rank: 6

积分
9348
威望
2122
金币
2142
贡献
72
发表于 2019-9-3 00:17:49 | 显示全部楼层
试听是千百惠的“忘了伤心的人”,不熟悉的歌手,感谢分享
回复

使用道具 举报

签到天数: 586 天

[LV.9]以坛为家II

14

主题

1037

帖子

2440

积分

vip

Rank: 5Rank: 5

积分
2440
威望
633
金币
38
贡献
99
发表于 2019-9-3 07:10:42 | 显示全部楼层
王艳当年出了不少唱片,感谢上传分享。
回复

使用道具 举报

您需要登录后才可以回帖 登录 | 立即注册

本版积分规则

Archiver|手机版|小黑屋|数字音乐论坛 ( 津ICP备09009336号-1 )

GMT+8, 2019-9-20 03:16 , Processed in 0.296875 second(s), 50 queries .

Powered by Discuz! X3.4

© 2008-2019 上网要文明 发言要理性 本站禁灌水

快速回复 返回顶部 返回列表