开启辅助访问 天气预报 收藏本站

数字音乐论坛

 找回密码
 立即注册
快捷导航
查看: 170|回复: 12

[金猪唱片《吉他王-台語演奏精選4》裸片[APE+CUE][227MB/百度]

[复制链接]

签到天数: 39 天

[LV.5]常住居民I

58

主题

118

帖子

5677

积分

中级会员

Rank: 3Rank: 3

积分
5677
威望
550
金币
4360
贡献
99
发表于 6 天前 | 显示全部楼层 |阅读模式
碟片.jpg

專輯名稱:吉他王-台語演奏精選4
唱片編號:GPC-9602-1
圈內編碼:GPC-9602-4
專輯語種:演奏
發行公司:金豬
唱片片源:裸片
製作軟體:EAC
採樣格式:ape整軌+cue
讀取模式:安全模式,光碟機具備有精確流選項,

曲目

01 月夜的小路

02 春夢不了情
03 媽媽歌星
04 鄉愁的男兒
05 心影
06 寂寞的媽媽
07 懷念媽媽
08 夜都市半暝三更
09 想著彼個人
10 悲情的城市
11 生活苦
12 秋風夜雨

游客,如果您要查看本帖隐藏内容请回复


提取码.rar (91 Bytes, 下载次数: 16, 售价: 2 金币)
我新发布了帖子《[雷射吉它演奏2 - 典藏特辑][WAV+CUE][404MB/百度]》,快来围观吧!
回复

使用道具 举报

签到天数: 39 天

[LV.5]常住居民I

58

主题

118

帖子

5677

积分

中级会员

Rank: 3Rank: 3

积分
5677
威望
550
金币
4360
贡献
99
 楼主| 发表于 6 天前 | 显示全部楼层
Exact Audio Copy V0.99 prebeta 4 from 23. January 2008

EAC extraction logfile from 22. April 2012, 21:39

演奏 / 吉他王-台語演奏精選4

Used drive  : ASUS    DRW-22B3S   Adapter: 1  ID: 1

Read mode               : Secure
Utilize accurate stream : Yes
Defeat audio cache      : Yes
Make use of C2 pointers : No

Read offset correction                      : 0
Overread into Lead-In and Lead-Out          : No
Fill up missing offset samples with silence : Yes
Delete leading and trailing silent blocks   : No
Null samples used in CRC calculations       : No
Used interface                              : Native Win32 interface for Win NT & 2000

Used output format : Monkey's Audio Lossless Encoder v3.99 DLL
Sample format      : High Lossless Compression


TOC of the extracted CD

     Track |   Start  |  Length  | Start sector | End sector
    ---------------------------------------------------------
        1  |  0:00.00 |  3:11.00 |         0    |    14324   
        2  |  3:11.00 |  3:22.07 |     14325    |    29481   
        3  |  6:33.07 |  4:23.68 |     29482    |    49274   
        4  | 10:57.00 |  2:30.65 |     49275    |    60589   
        5  | 13:27.65 |  4:26.10 |     60590    |    80549   
        6  | 17:54.00 |  3:16.25 |     80550    |    95274   
        7  | 21:10.25 |  3:29.10 |     95275    |   110959   
        8  | 24:39.35 |  3:41.67 |    110960    |   127601   
        9  | 28:21.27 |  3:59.68 |    127602    |   145594   
       10  | 32:21.20 |  3:34.50 |    145595    |   161694   
       11  | 35:55.70 |  2:52.37 |    161695    |   174631   
       12  | 38:48.32 |  3:43.33 |    174632    |   191389   


Range status and errors

Selected range

     Filename C:\CDImage.ape

     Peak level 100.0 %
     Range quality 100.0 %
     Copy CRC 01135208
     Copy OK

No errors occurred

End of status report
我新发布了帖子《[雷射吉它演奏2 - 典藏特辑][WAV+CUE][404MB/百度]》,快来围观吧!
回复

使用道具 举报

签到天数: 579 天

[LV.9]以坛为家II

59

主题

1266

帖子

1万

积分

论坛元老

Rank: 8Rank: 8

积分
10726
威望
1693
金币
5504
贡献
565

发帖高手勋章

发表于 6 天前 | 显示全部楼层
谢谢小米米分享好听的台语吉他演奏曲。
回复

使用道具 举报

签到天数: 283 天

[LV.8]以坛为家I

8

主题

570

帖子

1306

积分

新手上路

Rank: 1

积分
1306
威望
346
金币
10
贡献
34
发表于 6 天前 | 显示全部楼层
感谢小米米分享的金猪唱片纯音乐。
回复

使用道具 举报

签到天数: 560 天

[LV.9]以坛为家II

57

主题

844

帖子

8951

积分

金牌会员

Rank: 6Rank: 6

积分
8951
威望
885
金币
6098
贡献
239
发表于 6 天前 | 显示全部楼层
优美动听的吉他 越听越爱听
回复

使用道具 举报

签到天数: 424 天

[LV.9]以坛为家II

1

主题

604

帖子

2051

积分

注册会员

Rank: 2

积分
2051
威望
177
金币
1093
贡献
0
发表于 6 天前 | 显示全部楼层
金豬系列小专辑真心不错,值得一听,多谢楼主了。
回复

使用道具 举报

签到天数: 20 天

[LV.4]偶尔看看III

1

主题

34

帖子

102

积分

新手上路

Rank: 1

积分
102
威望
12
金币
44
贡献
0
发表于 6 天前 | 显示全部楼层
不错的系列专辑·~感谢!
回复

使用道具 举报

签到天数: 332 天

[LV.8]以坛为家I

25

主题

663

帖子

2110

积分

注册会员

Rank: 2

积分
2110
威望
583
金币
196
贡献
85
发表于 5 天前 | 显示全部楼层
优美的曲调类似刘清池,谢谢分享
回复

使用道具 举报

签到天数: 339 天

[LV.8]以坛为家I

1

主题

488

帖子

1243

积分

新手上路

Rank: 1

积分
1243
威望
144
金币
467
贡献
0
发表于 5 天前 | 显示全部楼层
本帖最后由 id90512 于 2019-8-13 15:01 编辑

继续支持分享台语纯音乐 下载欣赏

感谢小米米分享这么多好听的台语音乐 期待分享整套吉他王精选
回复

使用道具 举报

签到天数: 501 天

[LV.9]以坛为家II

13

主题

886

帖子

2536

积分

注册会员

Rank: 2

积分
2536
威望
487
金币
607
贡献
69
发表于 5 天前 | 显示全部楼层
感谢分享这么多金猪的音乐
回复

使用道具 举报

您需要登录后才可以回帖 登录 | 立即注册

本版积分规则

Archiver|手机版|小黑屋|数字音乐论坛 ( 津ICP备09009336号-1 )

GMT+8, 2019-8-18 06:42 , Processed in 0.312500 second(s), 49 queries .

Powered by Discuz! X3.4

© 2008-2019 上网要文明 发言要理性 本站禁灌水

快速回复 返回顶部 返回列表