开启辅助访问 天气预报 收藏本站

数字音乐论坛

 找回密码
 立即注册
快捷导航
查看: 166|回复: 13

[金猪唱片《吉他王-台語演奏精選5》裸片[APE+CUE][233MB/百度]

[复制链接]

签到天数: 39 天

[LV.5]常住居民I

58

主题

118

帖子

5677

积分

中级会员

Rank: 3Rank: 3

积分
5677
威望
550
金币
4360
贡献
99
发表于 6 天前 | 显示全部楼层 |阅读模式
碟片.jpg


專輯名稱:吉他王-台語演奏精選5
唱片編號:GPC-9602-2
圈內編碼:GPC-9602-5
專輯語種:演奏
發行公司:金豬
唱片片源:裸片
製作軟體:EAC
採樣格式:ape整軌+cue
讀取模式:安全模式,光碟機具備有精確流選項,

曲目

01 船頭可愛
02 懷念的播音員
03 長崎蝴蝶姑娘

04 孤兒淚
05 細雪
06 幸子
07 七逃人的目屎
08 流浪之歌
09 看破的愛
10 流浪漢的搖子歌
11 孤戀花
12 最後一封信

游客,如果您要查看本帖隐藏内容请回复


提取码.rar (91 Bytes, 下载次数: 16, 售价: 2 金币)
我新发布了帖子《[雷射吉它演奏2 - 典藏特辑][WAV+CUE][404MB/百度]》,快来围观吧!
回复

使用道具 举报

签到天数: 39 天

[LV.5]常住居民I

58

主题

118

帖子

5677

积分

中级会员

Rank: 3Rank: 3

积分
5677
威望
550
金币
4360
贡献
99
 楼主| 发表于 6 天前 | 显示全部楼层
Exact Audio Copy V0.99 prebeta 4 from 23. January 2008

EAC extraction logfile from 22. April 2012, 22:00

演奏 / 吉他王-台語演奏精選5

Used drive  : ASUS    DRW-22B3S   Adapter: 1  ID: 1

Read mode               : Secure
Utilize accurate stream : Yes
Defeat audio cache      : Yes
Make use of C2 pointers : No

Read offset correction                      : 0
Overread into Lead-In and Lead-Out          : No
Fill up missing offset samples with silence : Yes
Delete leading and trailing silent blocks   : No
Null samples used in CRC calculations       : No
Used interface                              : Native Win32 interface for Win NT & 2000

Used output format : Monkey's Audio Lossless Encoder v3.99 DLL
Sample format      : High Lossless Compression


TOC of the extracted CD

     Track |   Start  |  Length  | Start sector | End sector
    ---------------------------------------------------------
        1  |  0:00.00 |  3:19.60 |         0    |    14984   
        2  |  3:19.60 |  4:10.17 |     14985    |    33751   
        3  |  7:30.02 |  3:43.58 |     33752    |    50534   
        4  | 11:13.60 |  3:33.65 |     50535    |    66574   
        5  | 14:47.50 |  3:54.12 |     66575    |    84136   
        6  | 18:41.62 |  3:49.63 |     84137    |   101374   
        7  | 22:31.50 |  3:57.30 |    101375    |   119179   
        8  | 26:29.05 |  3:43.57 |    119180    |   135961   
        9  | 30:12.62 |  3:30.28 |    135962    |   151739   
       10  | 33:43.15 |  4:13.70 |    151740    |   170784   
       11  | 37:57.10 |  3:21.40 |    170785    |   185899   
       12  | 41:18.50 |  3:41.70 |    185900    |   202544   


Range status and errors

Selected range

     Filename C:\CDImage.ape

     Peak level 100.0 %
     Range quality 100.0 %
     Copy CRC 7B3DAE1B
     Copy OK

No errors occurred

End of status report
我新发布了帖子《[雷射吉它演奏2 - 典藏特辑][WAV+CUE][404MB/百度]》,快来围观吧!
回复

使用道具 举报

签到天数: 579 天

[LV.9]以坛为家II

59

主题

1266

帖子

1万

积分

论坛元老

Rank: 8Rank: 8

积分
10726
威望
1693
金币
5504
贡献
565

发帖高手勋章

发表于 6 天前 | 显示全部楼层
一定不错,下载了欣赏。
回复

使用道具 举报

签到天数: 283 天

[LV.8]以坛为家I

8

主题

570

帖子

1306

积分

新手上路

Rank: 1

积分
1306
威望
346
金币
10
贡献
34
发表于 6 天前 | 显示全部楼层
这套是吉他版的,有不有三线味的音乐?
回复

使用道具 举报

签到天数: 560 天

[LV.9]以坛为家II

57

主题

844

帖子

8951

积分

金牌会员

Rank: 6Rank: 6

积分
8951
威望
885
金币
6098
贡献
239
发表于 6 天前 | 显示全部楼层
好听收藏 谢谢小米米
回复

使用道具 举报

签到天数: 39 天

[LV.5]常住居民I

58

主题

118

帖子

5677

积分

中级会员

Rank: 3Rank: 3

积分
5677
威望
550
金币
4360
贡献
99
 楼主| 发表于 6 天前 | 显示全部楼层
lxiaoh 发表于 2019-8-12 17:36
这套是吉他版的,有不有三线味的音乐?

三味线!!!
http://22090.com/thread-11066-1-1.html
我新发布了帖子《[雷射吉它演奏2 - 典藏特辑][WAV+CUE][404MB/百度]》,快来围观吧!
回复

使用道具 举报

签到天数: 424 天

[LV.9]以坛为家II

1

主题

604

帖子

2051

积分

注册会员

Rank: 2

积分
2051
威望
177
金币
1093
贡献
0
发表于 6 天前 | 显示全部楼层
吉他音乐个人而言比较喜欢,谢谢楼主,收藏了。
回复

使用道具 举报

签到天数: 20 天

[LV.4]偶尔看看III

1

主题

34

帖子

102

积分

新手上路

Rank: 1

积分
102
威望
12
金币
44
贡献
0
发表于 6 天前 | 显示全部楼层
继续关注~~谢谢!
回复

使用道具 举报

签到天数: 501 天

[LV.9]以坛为家II

13

主题

886

帖子

2536

积分

注册会员

Rank: 2

积分
2536
威望
487
金币
607
贡献
69
发表于 5 天前 | 显示全部楼层
很喜欢小米米发布的音乐,谢谢了
来自微站
回复

使用道具 举报

签到天数: 76 天

[LV.6]常住居民II

1

主题

224

帖子

536

积分

新手上路

Rank: 1

积分
536
威望
140
金币
32
贡献
0
发表于 5 天前 | 显示全部楼层
吉他与乐队配合演奏效果真是非常好听,谢谢楼主的分享!
回复

使用道具 举报

您需要登录后才可以回帖 登录 | 立即注册

本版积分规则

Archiver|手机版|小黑屋|数字音乐论坛 ( 津ICP备09009336号-1 )

GMT+8, 2019-8-18 07:13 , Processed in 0.296875 second(s), 49 queries .

Powered by Discuz! X3.4

© 2008-2019 上网要文明 发言要理性 本站禁灌水

快速回复 返回顶部 返回列表