开启辅助访问 收藏本站

数字音乐论坛

 找回密码
 立即注册
查看: 2330|回复: 52

[VIP] [韩晓 我想去桂林][百度 WAV/441M]

  [复制链接]

签到天数: 306 天

[LV.8]以坛为家I

21

主题

430

帖子

9912

积分

管理员

Rank: 9Rank: 9Rank: 9

积分
9912
威望
533
金币
8168
贡献
218

最佳新人活跃会员热心会员推广达人宣传达人灌水之王突出贡献优秀版主荣誉管理论坛元老

发表于 2017-8-23 22:35:01 | 显示全部楼层 |阅读模式
韩晓   我想去桂林

演唱:韩晓
廣州撲通100製作,上海聲像出版社出版發行首版,
編號CD-0044,國際碼ISRC CN-E04-95-311-00/A.J6

01.我想去桂林
02.讓我再唱一著首歌
03.別讓我孤孤單單一個人過
04.依然有愛
05.願不願再從頭
06.曉曉的小窩
07.離愛遠點
08.哎喲,我的那個家
09.生命沒有休止符
10.快樂
11.曉曉舞動八分鐘(DISCO)

封面4.JPG
游客,如果您要查看本帖隐藏内容请回复



评分

已有 1 人评分威望 金币 贡献 收起 理由
WSAN + 8 + 16 + 8

总评分: 威望 + 8 金币 + 16 贡献 + 8 查看全部评分

回复

使用道具 举报

签到天数: 306 天

[LV.8]以坛为家I

21

主题

430

帖子

9912

积分

管理员

Rank: 9Rank: 9Rank: 9

积分
9912
威望
533
金币
8168
贡献
218

最佳新人活跃会员热心会员推广达人宣传达人灌水之王突出贡献优秀版主荣誉管理论坛元老

 楼主| 发表于 2017-8-23 22:59:46 | 显示全部楼层
EAC 抓取日志文件从20. 四月 2016, 0:17 用于 CD
韩晓 / 我想去桂林

使用驱动器  :ASUS    DRW-24D1ST   a   Adapter: 1  ID: 0
读取模式    :不使用 C2, 使用精确流,不禁用缓存的安全模式
组合读写偏移校正:0
读取 Lead-In 和 Lead-Out : 否

所用输出模式:内部 WAV 函数
                     44.100 Hz;16 Bit;立体声

其他选项    :
    用静音填充抓取中丢失偏移的采样 : 是
    去除首尾静音块 : 否
    Win NT 及 2000 本地 Win32 接口


范围状态及错误
已选择范围
     文件名 F:\韩晓-我想去桂林\CDImage.wav

     峰值电平 54.6 %
     范围质量 100.0 %
     CRC 6D0E6F81
     复制成功

没有错误发生

状态报告结尾
回复

使用道具 举报

签到天数: 306 天

[LV.8]以坛为家I

21

主题

430

帖子

9912

积分

管理员

Rank: 9Rank: 9Rank: 9

积分
9912
威望
533
金币
8168
贡献
218

最佳新人活跃会员热心会员推广达人宣传达人灌水之王突出贡献优秀版主荣誉管理论坛元老

 楼主| 发表于 2017-8-23 23:00:16 | 显示全部楼层
PERFORMER "韩晓"
TITLE "我想去桂林"
FILE "CDImage.wav" WAVE
  TRACK 01 AUDIO
    TITLE "Track01"
    PERFORMER "韩晓"
    FLAGS DCP
    INDEX 01 00:00:00
  TRACK 02 AUDIO
    TITLE "Track02"
    PERFORMER "韩晓"
    FLAGS DCP
    INDEX 00 04:41:35
    INDEX 01 04:43:35
  TRACK 03 AUDIO
    TITLE "Track03"
    PERFORMER "韩晓"
    FLAGS DCP
    INDEX 00 09:19:62
    INDEX 01 09:21:62
  TRACK 04 AUDIO
    TITLE "Track04"
    PERFORMER "韩晓"
    FLAGS DCP
    INDEX 00 13:15:62
    INDEX 01 13:17:62
  TRACK 05 AUDIO
    TITLE "Track05"
    PERFORMER "韩晓"
    FLAGS DCP
    INDEX 00 18:08:72
    INDEX 01 18:10:72
  TRACK 06 AUDIO
    TITLE "Track06"
    PERFORMER "韩晓"
    FLAGS DCP
    INDEX 00 21:57:50
    INDEX 01 21:59:50
  TRACK 07 AUDIO
    TITLE "Track07"
    PERFORMER "韩晓"
    FLAGS DCP
    INDEX 00 25:50:37
    INDEX 01 25:52:37
  TRACK 08 AUDIO
    TITLE "Track08"
    PERFORMER "韩晓"
    FLAGS DCP
    INDEX 00 30:17:25
    INDEX 01 30:19:25
  TRACK 09 AUDIO
    TITLE "Track09"
    PERFORMER "韩晓"
    FLAGS DCP
    INDEX 00 34:22:62
    INDEX 01 34:24:62
  TRACK 10 AUDIO
    TITLE "Track10"
    PERFORMER "韩晓"
    FLAGS DCP
    INDEX 00 38:35:20
    INDEX 01 38:37:20
  TRACK 11 AUDIO
    TITLE "Track11"
    PERFORMER "韩晓"
    FLAGS DCP
    INDEX 00 43:15:72
    INDEX 01 43:17:72
回复

使用道具 举报

签到天数: 328 天

[LV.8]以坛为家I

158

主题

1059

帖子

7916

积分

超级版主

Rank: 8Rank: 8

积分
7916
威望
1459
金币
3509
贡献
420

突出贡献优秀版主荣誉管理

发表于 2017-8-23 23:18:25 | 显示全部楼层
沙发支持西北狼狼管理的好专辑!"我想去桂林"是歌手韩晓的专辑中的主打歌,他因这首歌而红遍大江南北。



我新发布了帖子《张美玲 -华语流行恋歌4《缘分的谎》随机2分钟片段》,快来围观吧!
回复

使用道具 举报

签到天数: 47 天

[LV.5]常住居民I

0

主题

541

帖子

2763

积分

禁止访问

积分
2763
威望
484
金币
1245
贡献
9
发表于 2017-8-24 07:05:43 | 显示全部楼层
提示: 作者被禁止或删除 内容自动屏蔽
回复

使用道具 举报

签到天数: 269 天

[LV.8]以坛为家I

1

主题

778

帖子

1895

积分

新手上路

Rank: 1

积分
1895
威望
486
金币
140
贡献
5
发表于 2017-8-24 07:55:04 | 显示全部楼层
喜欢那清新的风味,谢谢分享
回复

使用道具 举报

签到天数: 166 天

[LV.7]常住居民III

15

主题

621

帖子

2299

积分

注册会员

Rank: 2

积分
2299
威望
666
金币
227
贡献
119
发表于 2017-8-24 10:28:22 | 显示全部楼层
狼哥的这个韩晓的我想去桂林当时还蛮流行的呢,想想也是工作了确实时间很少了
回复

使用道具 举报

签到天数: 304 天

[LV.8]以坛为家I

62

主题

976

帖子

5589

积分

中级会员

Rank: 3Rank: 3

积分
5589
威望
1750
金币
531
贡献
562

发帖高手勋章

发表于 2017-8-24 11:49:59 | 显示全部楼层
有磁带版本谢谢西北狼分享
回复

使用道具 举报

签到天数: 316 天

[LV.8]以坛为家I

1

主题

785

帖子

2243

积分

注册会员

Rank: 2

积分
2243
威望
435
金币
587
贡献
1
发表于 2017-8-24 15:06:58 | 显示全部楼层
哈哈,好熟悉的调调,勾起许多回忆:loveliness:
回复

使用道具 举报

签到天数: 311 天

[LV.8]以坛为家I

28

主题

1936

帖子

6200

积分

中级会员

Rank: 3Rank: 3

积分
6200
威望
1478
金币
1254
贡献
54
发表于 2017-8-28 17:33:59 | 显示全部楼层
我想去桂林当年风靡一时,不过韩晓好像就唱红了这么一首歌

点评

还有(大头皮鞋)传唱度也是挺高的!  发表于 2017-9-8 00:05
回复

使用道具 举报

您需要登录后才可以回帖 登录 | 立即注册

本版积分规则

数字音乐论坛

Archiver|手机版|小黑屋|数字音乐论坛 ( 津ICP备09009336号-1 )

GMT+8, 2018-11-15 08:26 , Processed in 1.380000 second(s), 59 queries .

Powered by Discuz! X3.4

© 2008-2018 Comsenz Inc.|上网要文明 发言要理性 本站禁灌水

快速回复 返回顶部 返回列表